<?xml version="1.0" standalone="no"?>
<!DOCTYPE svg PUBLIC "-//W3C//DTD SVG 1.1//EN" "http://www.w3.org/Graphics/SVG/1.1/DTD/svg11.dtd" >
<svg xmlns="http://www.w3.org/2000/svg" xmlns:xlink="http://www.w3.org/1999/xlink" version="1.1">
<metadata>
Created by FontForge 20170731 at Wed Feb  8 02:38:45 2017
 By Aleksey,,,
Copyright  2017 by Elena Genova. All rights reserved.
</metadata>
<defs>
<font id="RockebyScOne-Bold" horiz-adv-x="677" >
  <font-face 
    font-family="Rockeby ScOne Bold"
    font-weight="700"
    font-style="italic"
    font-stretch="normal"
    units-per-em="1000"
    panose-1="0 0 8 0 0 0 0 0 0 0"
    ascent="800"
    descent="-200"
    x-height="550"
    cap-height="815"
    bbox="-637 -558.75 1746.31 1200"
    underline-thickness="50"
    underline-position="-200"
    slope="-10"
    unicode-range="U+0020-E1F4"
  />
<missing-glyph horiz-adv-x="870" 
d="M713 1200v-1740h-551v1740h551zM579 1083h-287v-57h113v-64h-114v-58h288v58h-114v64h114v57zM465 859h-174v-181h288v59h-114v122zM405 800v-63h-57v63h57zM579 631h-288v-57h114v-65h-114v-57h174v122h114v57zM579 527h-57v-115h-231v-59h288v174zM579 314h-174v-97h60
v40h57v-82h-174v139h-57v-196h288v196zM579 13h-288v-196h288v196zM522 -44v-82h-174v82h174zM579 -223h-288v-58h121l-121 -82v-57h288v57h-177l122 82h55v58z" />
    <glyph glyph-name="f_f" unicode="ff" horiz-adv-x="392" 
d="M443 815q42 0 65.5 -26t20.5 -66q-1 -9 -11 -9l-35 1q-9 0 -9 10q-1 16 -12 25t-30 9q-71 0 -94 -135l-13 -73h66q11 0 9 -11l-7 -37q-1 -9 -10 -9h-68l-115 -652q-37 -211 -165 -211q-34 0 -57 17q-8 7 0 14l22 30q5 5 14 1q15 -6 31 -6q71 0 99 155l115 652h-140
l-115 -652q-37 -211 -165 -211q-42 0 -66 25.5t-20 65.5q1 9 11 9h35q9 0 9 -11q0 -33 41 -33q71 0 99 155l115 652h-35q-11 0 -9 11l6 37q2 9 11 9h37l13 73q33 191 161 191q36 0 59 -20q6 -5 1 -14l-20 -33q-4 -8 -13 -1q-15 12 -38 12q-71 0 -94 -135l-13 -73h140l13 73
q33 191 161 191z" />
    <glyph glyph-name="f_f_i" unicode="ffi" horiz-adv-x="609" 
d="M664 296q7 0 13 -1.5t10 -5t3 -7.5q-27 -151 -72 -221.5t-119 -70.5q-53 0 -80 32.5t-27 93.5q0 27 6 60l54 317h-138l-115 -651q-37 -211 -165 -211q-34 0 -57 17q-7 6 0 14l23 30q4 5 13 1q15 -6 32 -6q71 0 98 155l115 651h-140l-115 -651q-37 -211 -165 -211
q-41 0 -65 25.5t-21 65.5q1 9 11 9h35q9 0 9 -11q1 -33 42 -33q71 0 98 155l115 651h-45q-11 0 -9 11l6 37q2 9 11 9h47l13 74q34 191 161 191q36 0 60 -20q5 -5 0 -14l-19 -33q-5 -8 -14 -1q-15 12 -37 12q-71 0 -95 -135l-13 -74h140l13 74q33 191 161 191q27 0 49 -11
t37 -37t15 -64q0 -36 -6 -67q-2 -11 -10 -11h-36q-5 0 -8 3.5t-2 9.5q6 41 6 57q0 64 -56 64q-70 0 -94 -135l-13 -74h184q11 0 9 -11l-62 -363q-5 -27 -5 -45q0 -40 15 -62.5t44 -22.5q28 0 50.5 24t40.5 76t34 136q3 14 30 14z" />
    <glyph glyph-name=".notdef" horiz-adv-x="870" 
d="M713 1200v-1740h-551v1740h551zM579 1083h-287v-57h113v-64h-114v-58h288v58h-114v64h114v57zM465 859h-174v-181h288v59h-114v122zM405 800v-63h-57v63h57zM579 631h-288v-57h114v-65h-114v-57h174v122h114v57zM579 527h-57v-115h-231v-59h288v174zM579 314h-174v-97h60
v40h57v-82h-174v139h-57v-196h288v196zM579 13h-288v-196h288v196zM522 -44v-82h-174v82h174zM579 -223h-288v-58h121l-121 -82v-57h288v57h-177l122 82h55v58z" />
    <glyph glyph-name=".null" horiz-adv-x="0" 
 />
    <glyph glyph-name="nonmarkingreturn" horiz-adv-x="333" 
 />
    <glyph glyph-name="space" unicode=" " horiz-adv-x="190" 
 />
    <glyph glyph-name="exclam" unicode="!" horiz-adv-x="190" 
d="M63 190q-11 0 -9 11l85 504q1 9 11 9h41q11 0 9 -11l-96 -504q-2 -9 -11 -9h-30zM43 -10q-10 0 -16.5 2.5t-9.5 8.5t-3 15q0 8 1 18q5 24 14.5 34t28.5 10q15 0 22 -6t7 -20q0 -8 -2 -18q-4 -24 -13.5 -34t-28.5 -10z" />
    <glyph glyph-name="quotedbl" unicode="&#x22;" horiz-adv-x="283" 
d="M131 627q-11 0 -9 11l24 179q1 9 11 9h43q11 0 9 -11l-39 -179q-2 -9 -11 -9h-28zM250 626q-11 0 -10 11l25 179q1 9 10 9h44q11 0 9 -11l-39 -179q-2 -9 -11 -9h-28z" />
    <glyph glyph-name="numbersign" unicode="#" horiz-adv-x="482" 
d="M484 526q11 0 9 -11l-7 -39q-2 -9 -11 -9h-74l-39 -222h73q11 0 9 -11l-8 -39q-1 -9 -11 -9h-74l-34 -193q-2 -9 -11 -9h-40q-11 0 -9 11l34 191h-122l-34 -193q-2 -9 -11 -9h-40q-11 0 -9 11l34 191h-64q-11 0 -9 11l7 39q2 9 11 9h66l39 222h-65q-11 0 -9 11l8 39
q1 9 11 9h65l32 181q2 9 11 9h40q11 0 9 -11l-32 -179h122l32 181q2 9 11 9h40q11 0 9 -11l-32 -179h73zM302 245l39 222h-122l-39 -222h122z" />
    <glyph glyph-name="dollar" unicode="$" horiz-adv-x="374" 
d="M355 688q10 -4 4 -14l-20 -36q-5 -8 -14 -4q-32 15 -66 15q-48 0 -76.5 -20.5t-34.5 -55.5q-8 -47 10.5 -86t84.5 -126q46 -60 62 -110.5t5 -111.5q-10 -58 -47 -96t-95 -49l-7 -36q-1 -9 -10 -9h-38q-11 0 -9 11l5 30q-50 3 -99 27q-10 4 -4 13l25 36q5 8 13 4
q43 -22 87 -22q56 0 84.5 22.5t36.5 68.5q4 26 4 46.5t-8 43t-20 43.5t-33 49q-5 7 -23 31t-22.5 30.5l-18 26t-17 27t-12 24.5t-10 27t-4.5 25.5t-2 30t4 30.5q9 51 47.5 86.5t97.5 44.5l6 33q1 9 11 9h37q11 0 10 -11l-6 -30q33 -4 62 -17z" />
    <glyph glyph-name="percent" unicode="%" horiz-adv-x="654" 
d="M135 13q-12 3 -6 13l371 682q4 8 12 6l32 -7q12 -3 6 -13l-371 -682q-4 -8 -12 -6zM171 331q-59 0 -82 38.5t-10 110.5q28 160 146 160q58 0 80 -41t8 -119q-12 -70 -49 -109.5t-93 -39.5zM180 385q62 0 79 95q10 54 -0.5 79.5t-42.5 25.5q-35 0 -54 -24.5t-29 -80.5
q-3 -20 -3.5 -35t3 -29.5t15.5 -22.5t32 -8zM457 56q-58 0 -81 38.5t-10 110.5q28 160 146 160q58 0 79.5 -41t8.5 -119q-13 -70 -50 -109.5t-93 -39.5zM467 110q62 0 79 95q9 54 -1.5 79.5t-42.5 25.5q-35 0 -54 -24.5t-28 -80.5q-4 -24 -4.5 -45t12.5 -35.5t39 -14.5z" />
    <glyph glyph-name="ampersand" unicode="&#x26;" horiz-adv-x="565" 
d="M558 503q13 -31 3 -61.5t-40 -53.5q-13 -10 -26 -17q40 -71 22 -169q-17 -99 -93 -160.5t-183 -61.5q-125 0 -182.5 64t-38.5 176q14 76 55.5 129.5t97.5 83.5q-33 27 -46.5 75.5t-2.5 109.5q15 90 77 145.5t152 55.5q40 0 69.5 -10.5t44.5 -28.5t23.5 -38t9 -44.5
t-1.5 -42.5t-7 -36q-2 -9 -11 -8l-35 3q-11 1 -8 12q33 137 -94 137q-66 0 -109 -39t-54 -106q-13 -69 11.5 -112t70.5 -45q8 1 15 1h23q11 0 9 -11l-6 -36q-2 -9 -11 -9h-25q-6 -1 -13 -1q-42 -3 -79.5 -27.5t-63.5 -66t-35 -91.5q-15 -88 29.5 -136t145.5 -48
q79 0 138.5 48t71.5 118q16 91 -26 145q-6 -2 -10 -3q-50 -15 -69 -30q-11 -8 -15 -20.5t-1 -22.5q3 -9 -3 -13l-35 -21q-9 -5 -13 3q-14 22 -4 57.5t40 58.5q36 27 96 43q46 12 69 31q23 18 14 42q-3 9 4 14l37 22q9 5 13 -5z" />
    <glyph glyph-name="quotesingle" unicode="'" horiz-adv-x="164" 
d="M131 626q-11 0 -10 11l25 179q1 9 10 9h44q11 0 9 -11l-39 -179q-2 -9 -11 -9h-28z" />
    <glyph glyph-name="parenleft" unicode="(" horiz-adv-x="235" 
d="M95 -100q-10 -3 -13 6q-29 77 -29 217q0 113 21 230q24 138 74 260.5t99 187.5q5 7 14 3l23 -11q10 -5 4 -13q-40 -58 -88.5 -175.5t-71.5 -251.5q-20 -114 -20 -227q0 -133 22 -201q3 -9 -6 -13z" />
    <glyph glyph-name="parenright" unicode=")" horiz-adv-x="235" 
d="M-12 -97q-5 -7 -14 -3l-23 11q-10 5 -4 13q40 58 88.5 175.5t71.5 251.5q20 114 20 227q0 133 -22 201q-3 9 6 13l23 9q10 4 14 -5q34 -82 34 -215q0 -113 -21 -230q-24 -138 -74 -260.5t-99 -187.5z" />
    <glyph glyph-name="asterisk" unicode="*" horiz-adv-x="424" 
d="M404 631q10 4 12 -7l5 -37q1 -9 -8 -12l-110 -31l52 -87q5 -8 -3 -13l-37 -23q-9 -6 -13 3l-48 91l-81 -93q-7 -7 -14 -1l-26 21q-9 7 -1 15l83 87l-96 31q-11 3 -6 13l19 38q4 9 13 6l97 -38l17 111q1 9 10 9h38q11 0 9 -11l-22 -109z" />
    <glyph glyph-name="plus" unicode="+" horiz-adv-x="399" 
d="M350 376q11 0 9 -11l-7 -38q-1 -9 -11 -9h-104l-19 -105q-1 -9 -11 -9h-37q-11 0 -10 11l19 103h-104q-11 0 -9 11l6 38q2 9 11 9h106l19 106q1 9 10 9h38q11 0 9 -11l-18 -104h103z" />
    <glyph glyph-name="comma" unicode="," horiz-adv-x="192" 
d="M13 -111q-8 -4 -17.5 7t-4.5 18q43 57 28 113q-3 12 4.5 24.5t19.5 17.5q32 12 45 -18q9 -18 3 -54q-7 -36 -28 -65.5t-50 -42.5z" />
    <glyph glyph-name="hyphen" unicode="-" horiz-adv-x="332" 
d="M58 270q-11 0 -9 11l5 32q2 9 11 9h216q11 0 9 -11l-6 -32q-1 -9 -11 -9h-215z" />
    <glyph glyph-name="period" unicode="." horiz-adv-x="190" 
d="M45 -10q-10 0 -16.5 2.5t-9.5 8.5t-3 15q0 8 2 18q4 24 13.5 34t28.5 10q15 0 22 -6t7 -20q0 -8 -1 -18q-5 -24 -14.5 -34t-28.5 -10z" />
    <glyph glyph-name="slash" unicode="/" horiz-adv-x="197" 
d="M56 -11l-36 2q-10 1 -8 12l156 784q1 8 12 7l38 -1q10 0 8 -12l-158 -784q-1 -8 -12 -8z" />
    <glyph glyph-name="zero" unicode="0" horiz-adv-x="442" 
d="M172 -11q-76 0 -107.5 42.5t-31.5 128.5q0 76 27 229q12 69 23 117.5t26 97.5t33.5 80.5t42.5 57t56 37t72 11.5q74 0 105 -43t31 -128q0 -77 -27 -230q-12 -68 -22.5 -115.5t-25.5 -96.5t-33 -80.5t-42.5 -57.5t-56 -38t-70.5 -12zM182 47q49 0 80.5 31t54.5 102.5
t47 208.5q26 149 26 222q0 66 -20.5 93.5t-66.5 27.5q-51 0 -82.5 -30.5t-54.5 -102t-48 -210.5q-27 -152 -27 -223q0 -66 21.5 -92.5t69.5 -26.5z" />
    <glyph glyph-name="one" unicode="1" horiz-adv-x="288" 
d="M275 767q10 -2 8 -12l-132 -746q-1 -9 -10 -9h-38q-11 0 -9 11l109 617q-40 -55 -86 -107q-6 -7 -14 -2l-27 18q-8 6 -1 14q92 108 157 218q4 8 12 6z" />
    <glyph glyph-name="two" unicode="2" horiz-adv-x="406" 
d="M282 791q54 0 87 -27t43.5 -80.5t-3.5 -133.5q-19 -104 -89.5 -243.5t-153.5 -224.5q52 -30 103 -30q33 0 72 29q8 6 14 -2l21 -28q6 -7 -2 -13q-52 -42 -115 -42q-74 0 -142 43q-56 -41 -104 -39q-36 2 -55 21t-12 53q12 64 91 64q38 0 82 -26q50 50 102.5 135.5
t87 167.5t44.5 135q17 96 -3 140.5t-78 44.5t-95.5 -50.5t-45.5 -137.5q-1 -9 -10 -10l-37 -4q-11 -1 -10 10q4 73 32 129.5t74 87.5t102 31zM18 56q22 0 48 15q-23 11 -45 11q-8 0 -12 -4.5t-4 -10.5q0 -11 13 -11z" />
    <glyph glyph-name="three" unicode="3" horiz-adv-x="426" 
d="M320 406q62 -43 62 -136q0 -26 -4 -47q-21 -111 -82.5 -171t-153.5 -60q-69 0 -125 23q-9 4 -4 13l18 37q4 8 13 4q49 -20 107 -20q68 0 110 42.5t59 132.5q4 21 4 43q0 33 -11 56.5t-27 33t-27.5 13t-20.5 3.5h-34q-11 0 -9 11l6 37q1 9 10 9l37 1q23 1 46.5 23.5
t42.5 61.5t27 85q3 22 3 40q0 92 -91 92q-59 0 -93.5 -36t-39.5 -102q-1 -9 -10 -10l-36 -5q-11 -1 -10 10q6 90 60 144.5t139 54.5q45 0 76.5 -17t47.5 -48.5t16 -75.5q0 -22 -5 -50q-21 -132 -101 -192z" />
    <glyph glyph-name="four" unicode="4" horiz-adv-x="439" 
d="M402 232q5 -8 -3 -14q-40 -30 -83 -41l-29 -166q-2 -9 -11 -9h-36q-11 0 -9 11l28 158q-32 0 -85.5 13t-76.5 13q-31 0 -54 -16q-8 -5 -14 2l-21 24q-5 6 -1 13q97 164 162 293t115 261q4 9 13 7l33 -8q10 -2 7 -11q-92 -245 -250 -509q16 2 36 2q29 0 78.5 -11t68.5 -12
l45 256q2 9 11 9h36q11 0 9 -11l-44 -249q23 8 44 24q9 6 14 -2z" />
    <glyph glyph-name="five" unicode="5" horiz-adv-x="365" 
d="M399 790q8 6 14 -2l18 -26q6 -8 -2 -14q-45 -32 -97 -32q-22 0 -59 8t-54 7q-15 -1 -22 -4q-2 -2 -3 -4l-66 -271q36 21 73 21q71 0 108 -40.5t37 -117.5q0 -36 -7 -72q-15 -82 -46.5 -138.5t-80.5 -86.5t-113 -30q-52 0 -102 23q-9 4 -4 13l19 37q5 9 14 4
q40 -20 82 -20q71 0 113.5 49t59.5 150q6 33 6 61q0 111 -98 111q-41 0 -73 -21q-7 -5 -14 0l-32 24q-7 5 -5 13l83 331q2 7 9 10q31 14 66 14q15 0 36 -3.5t43.5 -7.5t39.5 -4q29 0 57 18z" />
    <glyph glyph-name="six" unicode="6" horiz-adv-x="421" 
d="M258 511q66 0 98 -36.5t32 -114.5q0 -48 -12 -113q-23 -133 -73 -195t-137 -62q-72 0 -102.5 43t-30.5 127q0 77 31 249q23 135 50 212t65 116q51 53 126 53q55 0 87 -34t31 -92q0 -9 -9 -10l-36 -5q-11 -2 -11 9q-1 35 -20.5 55t-51.5 20q-44 0 -77 -32
q-27 -27 -47.5 -85.5t-42.5 -175.5q50 71 130 71zM176 46q40 0 67 20t45.5 64t31.5 117q11 64 11 105q0 55 -20 79t-63 24q-59 0 -93 -48t-54 -160q-10 -57 -10 -95q0 -106 85 -106z" />
    <glyph glyph-name="seven" unicode="7" horiz-adv-x="395" 
d="M417 784q8 6 14 -2l21 -26q6 -7 2 -14q-1 -1 -46.5 -71t-96.5 -158t-104 -193q-81 -161 -109 -311q-1 -9 -10 -9h-38q-11 0 -9 11q13 69 41.5 149t57 142t72.5 143t69 122t66 109q3 4 4.5 6.5t4 6t4.5 7t3 6.5q-18 -5 -38 -5q-29 0 -75 12t-64 12q-31 0 -55 -20
q-9 -8 -14 2l-15 30q-5 8 3 14q49 37 102 37q26 0 72 -12.5t68 -12.5q38 0 70 25z" />
    <glyph glyph-name="eight" unicode="8" horiz-adv-x="432" 
d="M438 592q-23 -129 -94 -177q46 -34 46 -116q0 -34 -7 -76q-22 -121 -73.5 -177.5t-142.5 -56.5q-75 0 -110 35.5t-35 110.5q0 38 9 88q25 145 107 192q-39 34 -39 108q0 31 7 69q34 195 201 195q137 0 137 -134q0 -28 -6 -61zM162 592q-6 -32 -6 -56q0 -25 5.5 -42.5
t17 -29.5t28 -17.5t39.5 -5.5q56 0 89 37t47 114q5 27 5 48q0 91 -90 91q-111 0 -135 -139zM327 223q6 37 6 64q0 34 -10 55.5t-31.5 31.5t-55.5 10q-65 0 -99.5 -37.5t-49.5 -123.5q-8 -45 -8 -77q0 -54 23 -77.5t74 -23.5q65 0 99.5 41t51.5 137z" />
    <glyph glyph-name="nine" unicode="9" horiz-adv-x="421" 
d="M201 271q-45 0 -73.5 16t-42.5 49.5t-14 85.5q0 48 11 113q24 133 74 195t137 62q72 0 102 -43t30 -127q0 -77 -30 -249q-24 -135 -51 -212t-64 -116q-51 -53 -126 -53q-55 0 -87 34t-31 92q0 9 9 10l36 5q10 2 10 -9q1 -35 20.5 -55t52.5 -20q43 0 76 32
q27 27 47.5 85.5t42.5 175.5q-50 -71 -129 -71zM283 736q-59 0 -92 -46t-53 -155q-11 -64 -11 -105q0 -37 9 -60t27.5 -33t47.5 -10q39 0 66.5 21t47 66.5t32.5 120.5q11 57 11 95q0 106 -85 106z" />
    <glyph glyph-name="colon" unicode=":" horiz-adv-x="189" 
d="M59 481q-15 0 -22 6t-7 20q0 8 2 18q4 24 13.5 34t28.5 10q15 0 22 -6t7 -20q0 -8 -1 -18q-3 -17 -8.5 -26.5t-13.5 -13.5t-21 -4zM59 -10q-15 0 -22 6t-7 20q0 8 2 18q4 24 13.5 34t28.5 10q15 0 22 -6t7 -20q0 -8 -1 -18q-5 -24 -14.5 -34t-28.5 -10z" />
    <glyph glyph-name="semicolon" unicode=";" horiz-adv-x="222" 
d="M128 374q-8 0 -13 1.5t-9 4.5t-5.5 8t-1.5 12.5t2 17.5q3 17 8 26.5t13.5 13.5t20.5 4q16 0 22.5 -6t6.5 -20q0 -8 -1 -18q-3 -17 -8.5 -26.5t-13.5 -13.5t-21 -4zM33 -111q-8 -4 -17.5 7t-4.5 18q43 57 28 113q-3 12 4.5 24.5t19.5 17.5q32 12 45 -18q9 -18 3 -54
q-7 -36 -28 -65.5t-50 -42.5z" />
    <glyph glyph-name="less" unicode="&#x3c;" horiz-adv-x="397" 
d="M330 584l23 -28q6 -6 -3 -14l-234 -198l165 -199q5 -7 -4 -15l-31 -25q-9 -7 -14 -1l-186 226q-11 14 5 28l264 224q9 8 15 2z" />
    <glyph glyph-name="equal" unicode="=" horiz-adv-x="396" 
d="M87 378q-11 0 -9 11l6 38q2 9 11 9h259q11 0 9 -11l-7 -38q-1 -9 -11 -9h-258zM60 249q-11 0 -9 11l7 38q1 9 11 9h258q11 0 10 -11l-7 -38q-2 -9 -11 -9h-259z" />
    <glyph glyph-name="greater" unicode="&#x3e;" horiz-adv-x="397" 
d="M151 584q8 6 15 -2l184 -224q12 -14 -5 -28l-265 -226q-8 -6 -14 1l-22 25q-7 8 1 15l235 199l-163 198q-7 8 1 14z" />
    <glyph glyph-name="question" unicode="?" horiz-adv-x="401" 
d="M205 195q-1 -10 -11 -10h-35q-11 0 -10 11q10 63 33 113t50 83.5t53.5 63t48 65.5t28.5 76q4 23 4 42q0 31 -10 52t-30 32t-49 11q-39 0 -69.5 -23t-49 -65.5t-22.5 -99.5q0 -9 -9 -10l-37 -4q-11 -1 -10 10q5 73 32.5 129.5t73 87.5t101.5 31q43 0 73.5 -17t46.5 -48.5
t16 -76.5q0 -24 -5 -51q-8 -48 -30.5 -89t-49.5 -72.5t-54 -63.5t-49 -77.5t-30 -99.5zM153 -10q-15 0 -22 6t-7 20q0 8 2 18q2 16 7.5 26t13.5 14t21 4q15 0 22 -6t7 -20q0 -8 -1 -18q-5 -24 -14.5 -34t-28.5 -10z" />
    <glyph glyph-name="at" unicode="@" horiz-adv-x="695" 
d="M285 -8q-133 0 -191.5 70.5t-36.5 196.5q35 195 130.5 296.5t244.5 101.5q141 0 199.5 -88t9.5 -226q-36 -101 -77 -144.5t-101 -43.5q-67 0 -89 44q-36 -31 -80 -31q-93 0 -75 100q21 118 63 169.5t113 51.5q43 0 64 -30.5t11 -64.5l-44 -138q-2 -8 0.5 -16t8.5 -14
t16 -9.5t21 -3.5q34 0 59.5 32.5t50.5 108.5q38 111 -6 178t-154 67q-247 0 -307 -341q-18 -101 26 -154.5t148 -53.5q51 0 115 11q5 1 8 -1.5t2 -8.5l-6 -39q-1 -8 -4 -9q-8 -2 -30 -4.5t-47.5 -4.5t-41.5 -2zM304 226q23 0 43 16t27 40l36 114q5 15 -1 26t-24 12
q-38 3 -64.5 -35.5t-42.5 -127.5q-4 -26 1.5 -35.5t24.5 -9.5z" />
    <glyph glyph-name="A" unicode="A" 
d="M732 298q11 0 19 -4.5t7 -11.5q-19 -106 -45 -169t-62 -91.5t-88 -28.5q-50 0 -76 28.5t-26 81.5q0 25 6 59l15 87q-15 1 -32 3.5t-30 5.5t-32 7.5t-33 7.5q-26 -62 -52 -109.5t-57.5 -89t-67.5 -63.5t-76 -22q-44 0 -73.5 13.5t-43 37.5t-13.5 57q0 16 3 34
q7 38 28.5 73.5t57 66t91 49t121.5 18.5q26 0 50 -2q12 30 30.5 81t30.5 84t30.5 78.5t32.5 74.5t33 61.5t36.5 51.5t38.5 31.5t43 13.5h28q11 0 9 -10l-86 -494q34 5 53 17q11 6 14 -3l12 -29q4 -10 -4 -15q-29 -18 -85 -26l-16 -90q-6 -34 -6 -51q0 -62 56 -62
q47 0 76.5 51t52.5 182q3 16 30 16zM377 328q17 -3 41 -9t41.5 -9.5t32.5 -4.5l79 447q-18 -8 -37 -35.5t-38.5 -74t-36 -90.5t-40.5 -112t-42 -112zM111 45q54 0 99.5 61.5t91.5 173.5q-19 2 -39 2q-55 0 -100.5 -17t-72.5 -43t-41.5 -55.5t-14.5 -57.5q0 -64 77 -64z" />
    <glyph glyph-name="B" unicode="B" horiz-adv-x="633" 
d="M523 416q62 -37 62 -131q0 -84 -28.5 -151t-86 -108t-134.5 -41q-34 0 -64 8.5t-47 17t-40 23.5q-41 -45 -95 -45q-36 0 -55 20t-12 54q12 64 91 64q32 0 64 -16q42 79 77 288q1 7 4 22q7 42 10.5 62t10.5 55.5t12 53.5t13.5 44t17 39.5t20 28t25 21t29.5 8.5q10 1 10 -9
l2 -37q0 -8 -9 -10q-29 -9 -46 -69.5t-43 -208.5q-39 -223 -90 -314q22 -14 36.5 -22t39 -15t49.5 -7q88 0 135 66t47 164q0 54 -24 81t-62 27h-40q-11 0 -9 11l6 36q1 9 11 9h40q31 1 57.5 37t40 81.5t13.5 84.5q0 130 -183 130q-133 0 -206.5 -76t-73.5 -206
q0 -61 22.5 -98.5t61.5 -42.5q11 -2 9 -11l-6 -34q-1 -9 -11 -9q-22 1 -44 12.5t-42.5 32.5t-33.5 58.5t-13 84.5q0 154 95 249.5t252 95.5q113 0 171.5 -46.5t58.5 -129.5q0 -29 -7 -62t-19 -64t-30 -59t-39 -47zM95 45q25 0 45 16q-21 10 -42 10q-8 0 -12 -4.5t-4 -10.5
q0 -11 13 -11z" />
    <glyph glyph-name="C" unicode="C" horiz-adv-x="420" 
d="M230 -10q-77 0 -127.5 29t-72 80.5t-25 122t12.5 153.5q42 242 111.5 346t191.5 104q132 0 132 -144q0 -35 -10 -65q-3 -9 -13 -8l-29 2q-11 1 -9 11q7 33 7 58q0 90 -88 90q-92 0 -145.5 -88.5t-91.5 -305.5q-59 -329 166 -329q73 0 128 55t77 181q2 14 32 13
q25 -1 24 -13q-52 -292 -271 -292z" />
    <glyph glyph-name="D" unicode="D" horiz-adv-x="662" 
d="M388 825q260 0 260 -262q0 -84 -12.5 -165t-40 -156.5t-66.5 -132.5t-96.5 -91t-126.5 -34q-42 0 -73 12t-63 33q-42 -41 -101 -41q-33 0 -49.5 16.5t-16.5 40.5q0 32 25 56.5t66 24.5q32 0 65 -17q39 75 76 290q1 7 4 22q7 42 10.5 62t10.5 55.5t12 53.5t13.5 44
t17 39.5t20 28t25 21t29.5 8.5q10 1 10 -9l2 -37q0 -8 -9 -10q-29 -9 -46 -69.5t-43 -208.5q-2 -11 -7 -41.5t-7.5 -44t-8 -41.5t-9 -44t-10 -40t-12.5 -40.5t-13.5 -35t-16.5 -33.5q60 -39 109 -39q61 0 110.5 35.5t79.5 90t50 125.5t27.5 136t7.5 128q0 111 -53 162.5
t-160 51.5q-138 0 -210 -81t-72 -222q0 -51 22 -83.5t55 -37.5q10 -2 8 -11l-6 -37q-1 -9 -11 -9q-51 4 -87.5 48.5t-36.5 131.5q0 162 94 259.5t254 97.5zM73 44q27 0 48 16q-22 10 -43 10q-8 0 -12 -4.5t-4 -10.5q0 -11 11 -11z" />
    <glyph glyph-name="E" unicode="E" horiz-adv-x="460" 
d="M242 -15q-123 0 -186.5 57t-63.5 161q0 88 46.5 152.5t128.5 90.5q-23 15 -39 54t-16 84q-2 98 52.5 166t144.5 68q44 0 75 -15t44 -40t16 -57t-6 -67q-2 -9 -12 -8l-35 2q-10 1 -8 12q6 20 4 41t-8.5 37.5t-25 27.5t-47.5 11q-65 0 -102.5 -53t-36.5 -125
q1 -31 11 -55.5t27.5 -40t39.5 -22.5q7 -2 30 -5q12 -2 10 -11l-6 -36q-2 -8 -10 -8q-20 0 -30 -1q-61 -5 -104 -32t-64.5 -70t-21.5 -100q0 -78 52 -120t141 -42q86 0 155 66.5t88 174.5q2 10 17 14.5t28 0t11 -14.5q-24 -137 -107.5 -217t-191.5 -80z" />
    <glyph glyph-name="F" unicode="F" horiz-adv-x="497" 
d="M839 785q5 -8 -3 -13q-65 -43 -155 -43q-49 0 -140.5 16.5t-144.5 16.5q-151 0 -232.5 -72t-81.5 -204q0 -70 36 -113t80 -48q11 -2 9 -11l-6 -37q-1 -9 -11 -9q-18 2 -38 9t-43 23.5t-41 39t-30.5 58.5t-12.5 80q0 158 102.5 249t278.5 91q59 0 150.5 -16.5t134.5 -16.5
q72 0 117 30q9 7 14 -3zM498 713q10 0 10 -10l2 -36q0 -10 -9 -11q-24 -6 -37.5 -45.5t-30.5 -133.5h55q11 0 9 -11l-6 -37q-1 -9 -11 -9h-57q-2 -10 -4 -21l-10.5 -63t-10.5 -62.5t-11 -57t-13 -54.5t-15.5 -48t-20 -43t-25 -33.5t-32 -27t-39.5 -15.5t-49 -6
q-81 0 -130 62.5t-36 158.5q2 9 11 9h36q11 0 9 -13q-8 -70 27.5 -115.5t91.5 -45.5q70 0 96.5 65t60.5 266q1 5 1.5 8t1.5 7t1 8q2 9 4 21h-46q-11 0 -9 11l6 37q2 9 11 9h47q8 47 14.5 76.5t16.5 62t22 51t29.5 31.5t39.5 15z" />
    <glyph glyph-name="G" unicode="G" horiz-adv-x="552" 
d="M606 295q12 0 19.5 -3.5t6.5 -9.5l-2 -15q-8 -44 -21.5 -82t-35 -69.5t-41 -55.5t-51 -49t-53 -40t-57.5 -39q-29 -153 -76 -227.5t-116 -74.5q-39 0 -62.5 23t-23.5 59q0 28 15.5 58.5t36 54t55 51t59 44.5t61.5 40l18 108q-65 -78 -156 -78q-94 0 -138 51.5t-44 162.5
q0 72 18 171q21 121 48 204.5t64 138.5t84 80t109 25q32 0 57.5 -9t41.5 -23.5t26 -35t14 -41t4 -43.5q0 -38 -8 -68q-3 -9 -12 -8l-35 4q-11 2 -8 11q7 31 7 56q0 44 -23 72.5t-74 28.5q-94 0 -148 -88t-91 -304q-17 -99 -17 -161q0 -88 32.5 -128t102.5 -40q63 0 112 61.5
t72 171.5l28 162q2 9 11 9h36q11 0 9 -11l-77 -438q39 27 67 50.5t54.5 55t43.5 71.5t26 89l2 15q1 13 30 13zM186 -314q75 0 120 204q-70 -47 -113 -88.5t-43 -81.5q0 -16 9.5 -25t26.5 -9z" />
    <glyph glyph-name="H" unicode="H" horiz-adv-x="827" 
d="M883 296q27 0 25 -13q-22 -129 -84.5 -211t-140.5 -82q-125 0 -125 187q0 44 7 99h-10q-27 -1 -53 0.5t-60 5t-55 5.5q-36 -148 -94.5 -223t-146.5 -75q-57 0 -90.5 38.5t-33.5 84.5q0 106 82.5 169.5t220.5 63.5h18q5 25 10 54l60 341q-11 -4 -26 -9t-29.5 -9t-29.5 -8
t-31 -9.5t-30 -10.5q-69 -27 -100.5 -72t-31.5 -110q0 -25 9 -46.5t26.5 -36.5t40.5 -17q11 -1 9 -11l-6 -37q-1 -9 -11 -9q-39 3 -67.5 23.5t-43 54t-14.5 74.5q0 165 170 235q30 12 71 24t66.5 20.5t34.5 17.5q4 5 12 5h38q11 0 9 -11l-70 -399q-5 -29 -10 -56
q23 -1 77 -6.5t81 -4.5q8 0 16 1q3 17 6 36l75 432q1 9 11 9h36q11 0 9 -11l-75 -430q-3 -14 -5 -28q14 4 24.5 10.5t13.5 -2.5l12 -29q4 -10 -4 -15q-18 -11 -54 -20q-8 -60 -8 -104q0 -135 79 -135q50 0 95.5 67.5t63.5 169.5q3 13 31 13zM155 45q63 0 104 62t71 182h-15
q-61 0 -108.5 -15.5t-74 -41t-39.5 -54t-13 -58.5q0 -28 21 -51.5t54 -23.5z" />
    <glyph glyph-name="I" unicode="I" horiz-adv-x="454" 
d="M142 -11q-88 0 -138.5 62t-37.5 159q2 9 11 9h36q11 0 9 -13q-5 -47 10 -84t46.5 -57t72.5 -20q67 0 101.5 77t68.5 277l61 347q-16 -6 -43 -14t-48.5 -15t-48.5 -18t-48 -26t-41 -36t-34 -52t-21 -69q-4 -23 -4 -49q0 -51 20 -83t56 -36q11 -2 9 -11l-6 -37
q-1 -9 -11 -9q-59 4 -92 48.5t-33 117.5q0 33 5 59q8 46 26 84t41 63.5t51.5 46t56.5 33t56 22.5t50.5 16.5t40.5 14t25 14.5q4 5 12 5h38q11 0 9 -11l-71 -405q-1 -9 -5 -27q-12 -67 -19 -100.5t-20.5 -87.5t-29 -81.5t-38 -58t-53 -43t-70.5 -12.5z" />
    <glyph glyph-name="J" unicode="J" horiz-adv-x="449" 
d="M118 -123q-85 0 -135 62.5t-37 158.5q2 9 11 9h36q11 0 9 -13q-8 -71 28.5 -116t96.5 -45q33 0 58 16t46 47t39 85t33.5 122t32.5 166l45 255q6 36 6 61q0 41 -17.5 59t-57.5 18q-70 0 -134.5 -81t-84.5 -195q-9 -51 -9 -92q0 -60 18.5 -96t52.5 -40q10 -2 8 -11l-6 -37
q-1 -9 -11 -9q-58 4 -88 52t-30 132q0 46 9 101q25 139 107.5 235.5t177.5 96.5q122 0 122 -125q0 -25 -7 -69l-45 -255q-14 -79 -22.5 -121.5t-23 -104t-27.5 -93.5t-33.5 -71t-43 -57.5t-54 -31.5t-70.5 -13z" />
    <glyph glyph-name="K" unicode="K" horiz-adv-x="791" 
d="M816 282q2 14 32 13q25 -1 24 -13q-28 -161 -71.5 -226.5t-119.5 -65.5q-46 0 -77.5 19.5t-46.5 50.5t-23.5 68.5t-14.5 75t-15 69t-28 51.5t-50 21h-16q-7 -39 -11 -59.5t-12 -56t-14.5 -55.5t-18 -49.5t-22.5 -46t-27.5 -36t-35.5 -29.5t-43 -17t-52 -7
q-81 0 -130 62.5t-35 158.5q1 9 10 9h36q11 0 9 -13q-8 -70 27.5 -115.5t91.5 -45.5q74 0 109.5 72t65.5 252l67 382q-16 -7 -50.5 -18.5t-58.5 -20t-56 -26.5t-53.5 -38.5t-40 -54.5t-26.5 -77q-4 -23 -4 -49q0 -34 9 -60t26 -41.5t41 -17.5q11 -2 9 -11l-6 -37
q-1 -9 -11 -9q-59 4 -92 48.5t-33 117.5q0 33 5 59q6 36 19.5 67t30.5 54.5t38 43.5t43 34t45.5 26.5t45.5 20t43 14.5t37 11.5t28.5 9.5t17.5 9q8 6 12 6h37q9 0 9 -7v-4l-71 -402h17q41 0 75.5 43t60 104.5t52.5 123.5t65.5 105t85.5 43q46 0 75 -27q5 -6 -2 -14l-27 -28
q-6 -7 -14 1q-12 12 -42 12q-24 0 -46 -30.5t-42.5 -78.5t-42 -99t-52.5 -101.5t-67 -76.5q29 -22 44.5 -64.5t21.5 -86.5t15 -85.5t32 -67.5t63 -26q45 0 73.5 52t51.5 184z" />
    <glyph glyph-name="L" unicode="L" horiz-adv-x="467" 
d="M494 294q4 21 31 22q23 1 25 -15v-7q-29 -162 -74 -234t-120 -72q-26 0 -50.5 6t-52 22.5t-39 24.5t-43.5 31q-56 -81 -140 -81q-45 0 -71 27.5t-22 66.5q5 50 39 74t85 24q46 0 97 -29q32 75 65 259q4 20 8 46t8.5 52.5t7.5 46.5q-21 -3 -42 -3q-86 0 -134 39t-48 107
q0 8 2 28q0 9 10 9h36q11 0 9 -11q-1 -6 -1 -16q0 -48 35.5 -74t100.5 -26q21 0 42 3q10 48 21 82.5t27 64.5t38.5 45.5t51.5 15.5q34 0 52.5 -19.5t18.5 -53.5q0 -57 -44 -105t-113 -72q-12 -56 -30 -159q-35 -196 -78 -287q6 -4 26 -19t27.5 -20t25.5 -16t29 -15t26.5 -8
t29.5 -4q44 0 74.5 58.5t53.5 191.5zM388 766q-10 0 -18 -7t-16 -23t-15.5 -41t-16.5 -62q40 17 64 45t24 62q0 26 -22 26zM40 48q53 0 90 52q-44 27 -78 27q-26 0 -41.5 -11t-16.5 -31q-1 -37 46 -37z" />
    <glyph glyph-name="M" unicode="M" horiz-adv-x="853" 
d="M878 282q2 14 32 13q25 -1 24 -13q-28 -161 -71.5 -226.5t-119.5 -65.5q-52 0 -80 37t-28 97q0 39 14 122.5t34.5 183.5t23.5 112q19 110 0 161t-79 51q-51 0 -100 -46t-72 -136q-1 -9 -2 -17l-97 -546q0 -4 -3 -6t-6 -2l-36 -1q-5 0 -8.5 4t-2.5 9l97 551q18 99 -2 147
t-82 48q-57 0 -107.5 -47.5t-73.5 -142.5l-98 -559q-2 -9 -11 -9h-38q-11 0 -9 11l139 789q1 9 11 9h37q11 0 9 -11l-13 -75q60 91 162 91q58 0 92.5 -32t44.5 -92q66 119 175 119q85 0 118.5 -70t10.5 -201q-2 -10 -22 -106.5t-34 -179.5t-14 -121q0 -26 7 -45t20.5 -30
t32.5 -11q45 0 73.5 52t51.5 184z" />
    <glyph glyph-name="N" unicode="N" horiz-adv-x="548" 
d="M573 282q2 14 31 13q25 -1 24 -13q-28 -161 -71 -226.5t-119 -65.5q-53 0 -80.5 37.5t-27.5 96.5q0 39 14 122.5t34.5 183.5t22.5 112q20 114 1 165.5t-81 51.5q-39 0 -75 -18.5t-66.5 -62.5t-46.5 -109l-98 -559q-2 -9 -11 -9h-38q-11 0 -9 11l139 789q1 9 11 9h37
q11 0 9 -11l-14 -83q65 99 170 99q86 0 119.5 -70.5t8.5 -205.5q-2 -15 -15 -77.5t-24 -119t-20.5 -119t-9.5 -91.5q0 -39 15.5 -62.5t44.5 -23.5q44 0 72.5 52t52.5 184z" />
    <glyph glyph-name="O" unicode="O" horiz-adv-x="501" 
d="M275 345q10 -2 8 -11l-6 -37q-1 -9 -11 -9q-113 8 -113 168q0 85 22.5 166.5t71.5 141t115 59.5q65 0 95 -46.5t30 -146.5q0 -111 -17.5 -219t-52.5 -205t-97 -157t-142 -60q-176 0 -176 228q0 135 44 300.5t114 242.5q6 8 14 0l21 -22q6 -8 1 -14q-59 -68 -98 -225.5
t-39 -273.5q0 -95 32 -137.5t96 -42.5q62 0 111 59t76.5 150t42 186.5t14.5 181.5q0 145 -79 145q-34 0 -62 -31.5t-45 -79t-26 -98.5t-9 -94q0 -111 65 -119z" />
    <glyph glyph-name="P" unicode="P" horiz-adv-x="716" 
d="M292 317q-2 -9 -11 -9q-57 4 -90 52.5t-33 124.5q0 155 94 247.5t252 92.5q117 0 183 -59t66 -179q0 -148 -74 -257.5t-195 -109.5q-18 0 -33 3q-10 1 -8 12l9 37q1 8 12 8q14 -3 27 -3q63 0 111 45.5t71 112.5t23 142q0 101 -50.5 146.5t-151.5 45.5
q-132 0 -205.5 -73.5t-73.5 -200.5q0 -55 20 -90.5t55 -39.5q10 -2 8 -11zM174 -11q-81 0 -130 62.5t-36 158.5q2 9 11 9h36q11 0 9 -13q-8 -70 27.5 -115.5t91.5 -45.5q74 0 110 76t70 278q3 13 7 39q6 38 9.5 57t9.5 50.5t11 47t12.5 38t15.5 34t18.5 23.5t23.5 17.5
t28 7.5q10 0 10 -10l2 -36q0 -9 -9 -11q-25 -6 -38.5 -49.5t-34.5 -158.5q-6 -32 -9 -49q-1 -9 -4 -26q-11 -57 -16.5 -86t-17.5 -77.5t-23 -74t-29 -58.5t-39 -48.5t-50.5 -27.5t-65.5 -12z" />
    <glyph glyph-name="Q" unicode="Q" horiz-adv-x="491" 
d="M563 -86q9 -7 2 -14q-14 -14 -34 -25t-42.5 -17t-43.5 -6q-27 0 -51 8t-41.5 18.5t-37 30t-30.5 33.5t-30 39t-28 36q-58 -29 -124 -29q-43 0 -65.5 20.5t-22.5 50.5q0 39 26 64.5t71 25.5q74 0 134 -57q85 70 129.5 217t44.5 306q0 167 -114 167q-53 0 -97 -39
t-71.5 -101t-42.5 -133t-15 -140q0 -59 23 -93t67 -34q49 0 81.5 54t46.5 147q2 9 10 9h36q11 0 9 -11q-19 -117 -68 -186t-125 -69q-68 0 -103 43t-35 124q0 118 32.5 226.5t101.5 183.5t160 75q161 0 161 -214q0 -176 -50 -333t-146 -237q11 -13 31.5 -40.5t32.5 -41.5
t30.5 -31.5t38 -25t41.5 -7.5q42 0 70 23q6 6 14 1zM71 69q0 -10 11 -17.5t31 -7.5q39 0 75 14q-40 35 -86 35q-14 0 -22.5 -7.5t-8.5 -16.5z" />
    <glyph glyph-name="R" unicode="R" horiz-adv-x="662" 
d="M532 46q63 0 97 51.5t58 184.5q2 14 32 13q25 -1 24 -13q-29 -162 -78 -227t-143 -65q-47 0 -79 19t-45 47.5t-22 63t-13 65t-14.5 53t-28.5 27.5q-10 2 -8 11l6 37q2 9 11 9q70 2 118.5 24.5t78.5 69.5t43 120q7 36 7 72q0 160 -195 160q-114 0 -185.5 -56.5
t-90.5 -161.5q-5 -26 -5 -60q0 -57 20 -93.5t56 -41.5q10 -2 8 -11l-6 -37q-2 -9 -11 -9q-58 4 -91 54t-33 128q0 34 6 70q23 129 113.5 201.5t228.5 72.5q116 0 179 -52t63 -154q0 -34 -8 -82q-20 -111 -74.5 -175.5t-152.5 -87.5q10 -14 16 -35.5t10 -42t8 -43t11 -41
t17 -33.5t28.5 -23.5t43.5 -8.5zM54 -11q-81 0 -130 62.5t-35 158.5q1 9 10 9h36q11 0 9 -13q-8 -70 27.5 -115.5t91.5 -45.5q74 0 110 76t70 278q3 13 7 39q6 38 9.5 57t9.5 50.5t11 47t12.5 38t15.5 34t18.5 23.5t23.5 17.5t28 7.5q10 0 10 -10l2 -36q0 -10 -9 -11
q-25 -6 -38.5 -49.5t-34.5 -158.5q-6 -32 -9 -49q-1 -9 -4 -26q-11 -57 -16.5 -86t-17.5 -78t-23 -74t-29 -58t-39 -49t-50.5 -27.5t-65.5 -11.5z" />
    <glyph glyph-name="S" unicode="S" horiz-adv-x="407" 
d="M145 -4q-143 0 -200 116q-4 8 5 14l35 19q8 4 13 -5q45 -88 147 -88q126 0 148 119q3 17 3 31q0 16 -4 33t-8 27.5t-16 29.5t-16 25t-22 28.5t-21 26.5l-29 36q-28 35 -36 48.5t-26.5 45t-25.5 60t-7 58.5q0 13 4 39q13 73 55.5 116t113.5 43q44 0 74 -15t43.5 -40
t17.5 -57t-6 -67q-2 -9 -11 -8l-35 2q-10 1 -8 12q4 28 1.5 54t-22.5 44.5t-56 18.5q-92 0 -113 -110q-2 -16 -2 -25q0 -23 6 -45.5t23 -50.5t24 -39t34 -45.5t28 -36.5q2 -3 16 -20.5t17.5 -22.5t15 -21t16 -24.5t12 -24t10.5 -27.5t6 -28t3 -32q0 -18 -3 -39
q-15 -83 -66 -129t-138 -46z" />
    <glyph glyph-name="T" unicode="T" horiz-adv-x="485" 
d="M195 306q-3 -8 -12 -8q-49 5 -92 51.5t-43 130.5q0 151 96 244.5t250 93.5q59 0 150.5 -16.5t134.5 -16.5q73 0 118 30q8 7 13 -3l17 -27q4 -9 -2 -14q-52 -42 -156 -42q-49 0 -140.5 16.5t-144.5 16.5q-129 0 -204 -74.5t-75 -197.5q0 -57 24.5 -95.5t68.5 -42.5
q11 -2 8 -12zM174 -11q-81 0 -130 62.5t-36 158.5q2 9 11 9h36q11 0 9 -13q-8 -70 27.5 -115.5t91.5 -45.5q74 0 110 76t70 278q3 13 7 39q6 38 9.5 57t9.5 50.5t11 47t12.5 38t15.5 34t18.5 23.5t23.5 17.5t28 7.5q10 0 10 -10l2 -36q0 -9 -9 -11q-25 -6 -38.5 -49.5
t-34.5 -158.5q-6 -32 -9 -49q-1 -9 -4 -26q-11 -57 -16.5 -86t-17.5 -77.5t-23 -74t-29 -58.5t-39 -48.5t-50.5 -27.5t-65.5 -12z" />
    <glyph glyph-name="U" unicode="U" horiz-adv-x="556" 
d="M581 282q2 14 32 13q26 0 24 -13q-29 -161 -73 -226.5t-126 -65.5q-30 0 -53 9.5t-38.5 27.5t-23.5 44.5t-8 61.5v14q-79 -157 -196 -157q-80 0 -112.5 68.5t-10.5 191.5l96 546q1 8 9 8l36 1q6 0 9 -4t2 -9l-97 -551q-35 -195 76 -195q49 0 96.5 56t81.5 139.5t55 184.5
q39 226 65 375q2 9 11 9h37q11 0 9 -11q-28 -160 -64 -366q-31 -177 -37.5 -218.5t-6.5 -65.5q0 -103 74 -103q50 0 79.5 51.5t53.5 184.5z" />
    <glyph glyph-name="V" unicode="V" horiz-adv-x="511" 
d="M187 -10q-92 0 -127.5 67.5t-13.5 192.5l96 546q1 8 9 8l36 1q6 0 9 -4t2 -9l-97 -551q-18 -100 4 -147.5t90 -47.5q29 0 56 10.5t53 33.5t46.5 66t30.5 102l51 293q16 92 16 136q0 29 -8 44t-30 24q-8 3 -7 11l6 37q1 9 11 8q44 -6 63 -36t19 -89q0 -64 -13 -135
l-51 -293q-15 -87 -48.5 -146.5t-84.5 -90.5t-118 -31z" />
    <glyph glyph-name="W" unicode="W" horiz-adv-x="805" 
d="M714 811q44 -6 63 -36t19 -89q0 -64 -13 -135l-51 -293q-23 -129 -85 -198.5t-156 -69.5q-58 0 -92.5 32t-43.5 92q-67 -119 -176 -119q-85 0 -118 69.5t-11 200.5l93 536q1 9 11 9h37q11 0 9 -11l-93 -536q-20 -110 -1 -161t79 -51q51 0 100 46t72 136q1 9 3 17l96 546
q1 8 9 8l36 1q6 0 9 -4t2 -9l-97 -551q-12 -65 -7 -108.5t27.5 -65t63.5 -21.5q16 0 32.5 4.5t34 14t34 26t31 39t26 55.5t18.5 73l51 293q16 92 16 136q0 15 -2 25t-6 18.5t-11.5 14t-18.5 10.5q-8 3 -7 11l6 37q1 9 11 8z" />
    <glyph glyph-name="X" unicode="X" horiz-adv-x="695" 
d="M750 294q11 0 19 -3t7 -9q-26 -148 -92 -230t-160 -82q-81 0 -124.5 39t-52.5 123q-81 -162 -220 -162q-81 0 -130.5 62.5t-35.5 158.5q2 9 11 9h36q10 0 9 -13q-9 -70 26.5 -115.5t92.5 -45.5q166 0 228 349q5 28 11 53q16 95 16 171q0 57 -10.5 93.5t-31.5 53.5t-53 17
q-31 0 -58 -19.5t-44 -55.5t-19 -82q0 -10 -9 -11l-37 -4q-11 -2 -11 10q2 40 14 77.5t34 69.5t58 51.5t81 19.5q63 0 97 -38t42 -119q71 157 187 157q22 0 40.5 -4.5t31 -12.5t22 -19.5t15 -23.5t9 -28t4.5 -30t1 -31q0 -30 -8 -70q-1 -8 -11 -8l-35 2q-11 0 -9 12
q7 29 7 57q0 50 -17 75t-59 25q-62 0 -108.5 -81t-82.5 -254q-5 -27 -11 -53q-1 -3 -1 -6q-18 -101 -18 -173q0 -90 32 -130t101 -40q65 0 115 68t71 188q2 12 30 12z" />
    <glyph glyph-name="Y" unicode="Y" horiz-adv-x="492" 
d="M521 804q11 0 9 -11l-74 -424q-10 -61 -22 -109t-33 -100.5t-47 -87t-65 -57.5t-87 -23q-36 0 -64 11t-40 22t-25 27q-12 15 -6 20l33 26q8 6 14 -2q34 -48 94 -48q74 0 118 75t74 246l5 31q-77 -144 -189 -144q-78 0 -113 61t-19 154l59 331q2 8 9 8l36 1q6 0 9 -4t2 -9
l-59 -337q-12 -66 9 -107.5t75 -41.5q50 0 97.5 57.5t81.5 143t55 187.5l16 95q2 9 11 9h36z" />
    <glyph glyph-name="Z" unicode="Z" horiz-adv-x="500" 
d="M584 802q9 -4 3 -14l-476 -739q26 5 50 5q40 0 98.5 -13t82.5 -13q144 0 183 253q2 11 33 11q23 -1 23 -11q-58 -309 -248 -309q-43 0 -99 13.5t-84 13.5q-57 0 -97 -20q-5 -2 -8.5 -0.5t-4.5 6.5l-8 33q-1 6 2 9l463 717q-11 -2 -23 -2q-32 0 -93.5 17t-104.5 17
q-50 0 -82.5 -29.5t-32.5 -71.5q0 -21 8 -40q3 -8 -4 -13l-35 -23q-10 -6 -14 3q-15 30 -15 62q0 66 53.5 117t130.5 51q47 0 108.5 -18t83.5 -18q38 0 65 18q6 7 13 3z" />
    <glyph glyph-name="bracketleft" unicode="[" horiz-adv-x="220" 
d="M257 810q11 0 9 -11l-5 -32q-2 -9 -11 -9h-33l-144 -816h31q11 0 9 -11l-5 -32q-2 -9 -11 -9h-65q-8 0 -13 6t-3 14l155 880q1 8 8 14t15 6h63z" />
    <glyph glyph-name="backslash" unicode="\" horiz-adv-x="380" 
d="M272 -11q-10 -2 -12 8l-153 776q-2 10 7 12l35 9q10 3 12 -7l153 -778q1 -9 -8 -12z" />
    <glyph glyph-name="bracketright" unicode="]" horiz-adv-x="220" 
d="M188 812q8 0 13 -6t3 -14l-155 -880q-1 -8 -8 -14t-15 -6h-63q-11 0 -9 11l5 32q2 9 11 9h33l144 816h-31q-11 0 -9 11l5 32q2 9 11 9h65z" />
    <glyph glyph-name="asciicircum" unicode="^" horiz-adv-x="473" 
d="M72 272q-12 2 -6 13l213 409q3 7 11 7h42q10 0 11 -9l68 -408q1 -10 -8 -12l-39 -6q-10 -2 -11 8l-44 270l-12 74l-38 -74l-140 -272q-4 -8 -13 -6z" />
    <glyph glyph-name="underscore" unicode="_" horiz-adv-x="456" 
d="M-38 -101q-11 0 -9 11l7 36q1 9 11 9h399q11 0 9 -11l-6 -36q-2 -9 -11 -9h-400z" />
    <glyph glyph-name="grave" unicode="`" horiz-adv-x="242" 
d="M203 609q-8 0 -11 8l-40 98q-3 12 8 12h56q8 0 10 -9l18 -98q2 -11 -9 -11h-32z" />
    <glyph glyph-name="a" unicode="a" horiz-adv-x="469" 
d="M494 282q2 14 32 13q25 -1 24 -13q-28 -161 -71.5 -226.5t-119.5 -65.5q-26 0 -47 10t-34 27.5t-20 41.5q-42 -79 -129 -79q-38 0 -63.5 15t-38.5 39.5t-16 63t0.5 79.5t13.5 95q26 145 72 209.5t126 64.5q30 0 55 -15.5t36 -42.5l8 43q2 9 11 9h37q11 0 9 -11l-67 -377
q-3 -17 -3 -33q0 -37 16 -60t44 -23q45 0 73.5 52t51.5 184zM139 46q53 0 83.5 51t52.5 180q8 43 12 73t3.5 61t-7.5 49.5t-23 30.5t-41 12q-51 0 -83.5 -49.5t-54.5 -171.5q-7 -39 -10.5 -65.5t-5 -56t2 -48t11 -35t23 -24t37.5 -7.5z" />
    <glyph glyph-name="b" unicode="b" horiz-adv-x="390" 
d="M136 -11q-67 0 -98.5 45t-31.5 113q0 28 5 57l105 597q2 9 11 9h37q11 0 9 -11l-54 -300q0 -1 0.5 -1.5t1.5 0.5q40 60 106 60q55 0 86.5 -36.5t31.5 -108.5q0 -51 -14 -132q-27 -159 -70 -225.5t-125 -66.5zM139 46q51 0 82.5 52t53.5 179q16 84 16 129q0 47 -16.5 72
t-55.5 25q-56 0 -86 -48t-52 -173q-16 -92 -16 -137q0 -48 17 -73.5t57 -25.5z" />
    <glyph glyph-name="c" unicode="c" horiz-adv-x="352" 
d="M263 383q-11 1 -8 12q8 26 8 46q0 28 -13 44.5t-38 16.5q-47 0 -79 -55t-53 -170q-9 -51 -9 -91q0 -65 29 -102.5t86 -37.5q70 0 119.5 61t71.5 175q3 12 33 12q25 0 23 -12q-25 -141 -92 -216.5t-167 -75.5q-53 0 -88.5 21.5t-53.5 62t-18 100.5q0 49 10 103
q51 281 199 281q47 0 72.5 -28t25.5 -76q0 -30 -11 -67q-3 -9 -12 -8z" />
    <glyph glyph-name="d" unicode="d" horiz-adv-x="469" 
d="M494 282q2 14 32 13q25 -1 24 -13q-28 -161 -71.5 -226.5t-119.5 -65.5q-26 0 -47 10t-34 27.5t-20 41.5q-42 -79 -129 -79q-38 0 -63.5 15t-38.5 39.5t-16 63t0.5 79.5t13.5 95q26 145 72 209.5t126 64.5q30 0 55 -15.5t37 -42.5l53 303q2 9 11 9h37q11 0 9 -11
l-113 -637q-3 -17 -3 -33q0 -37 16 -60t44 -23q45 0 73.5 52t51.5 184zM139 46q53 0 83.5 51t52.5 180q8 43 12 73t3.5 61t-7.5 49.5t-23 30.5t-41 12q-51 0 -83.5 -49.5t-54.5 -171.5q-7 -39 -10.5 -65.5t-5 -56t2 -48t11 -35t23 -24t37.5 -7.5z" />
    <glyph glyph-name="e" unicode="e" horiz-adv-x="372" 
d="M190 -10q-86 0 -131 50t-45 138q0 42 9 93q50 284 199 284q51 0 79 -30.5t28 -83.5q0 -27 -5 -48q-8 -36 -24 -61.5t-35 -40t-52.5 -23.5t-61 -12t-75.5 -6q-5 -37 -5 -61q0 -66 33.5 -104.5t96.5 -38.5q155 0 196 236q3 14 32 14q11 0 18 -3.5t6 -10.5
q-26 -146 -90 -219t-173 -73zM87 307q44 2 62.5 3.5t44.5 6.5t37 14t21.5 24t15.5 39q4 16 4 34q0 33 -16 52t-44 19q-86 0 -125 -192z" />
    <glyph glyph-name="f" unicode="f" horiz-adv-x="195" 
d="M246 815q42 0 65.5 -25.5t19.5 -66.5q0 -9 -10 -9l-35 1q-9 0 -9 10q0 16 -11 25t-31 9q-70 0 -94 -135l-13 -73h66q11 0 9 -11l-6 -37q-1 -9 -11 -9h-68l-115 -652q-37 -211 -166 -211q-41 0 -64.5 25.5t-20.5 65.5q0 9 10 9h36q9 0 9 -10q0 -34 41 -34q71 0 99 155
l115 652h-35q-11 0 -9 11l6 37q2 9 11 9h37l13 73q34 191 161 191z" />
    <glyph glyph-name="g" unicode="g" horiz-adv-x="453" 
d="M478 282q2 11 16.5 14.5t27.5 -1t12 -13.5q-22 -114 -79.5 -189.5t-183.5 -160.5q-29 -153 -76 -227.5t-116 -74.5q-39 0 -62.5 23t-23.5 59q0 28 15 58t36 53.5t55 51.5t58.5 44.5t61.5 40.5l12 71q-38 -41 -102 -41q-32 0 -55 10t-36.5 29t-20.5 44t-7 59.5t3.5 69.5
t11.5 80q26 145 72 209.5t126 64.5q30 0 55 -15.5t36 -42.5l8 43q2 9 11 9h37q11 0 9 -11l-96 -537q62 44 101 86t60.5 87.5t33.5 106.5zM275 277v3l5 22q8 48 10 81t-3 62t-22 43.5t-46 14.5q-51 0 -84 -50t-54 -171q-7 -39 -10.5 -65.5t-5 -56t2 -48t11 -35t23 -24
t37.5 -7.5q53 0 82.5 50.5t53.5 180.5zM86 -314q74 0 119 203q-70 -46 -112.5 -87.5t-42.5 -81.5q0 -10 4.5 -18t12.5 -12t19 -4z" />
    <glyph glyph-name="h" unicode="h" horiz-adv-x="455" 
d="M510 296q11 0 19 -4t7 -10q-27 -152 -72 -222t-119 -70q-52 0 -79 32.5t-27 92.5q0 28 6 61l42 241q3 15 3 29q0 69 -61 69q-40 0 -76.5 -30.5t-48.5 -72.5l-70 -403q-2 -9 -11 -9h-36q-11 0 -9 11l138 790q1 9 11 9h36q11 0 9 -11l-48 -274q51 46 115 46q51 0 79.5 -30
t28.5 -83q0 -22 -4 -41l-42 -241q-4 -21 -4 -45q0 -40 15 -62.5t43 -22.5q43 0 72 55t53 181q3 14 30 14z" />
    <glyph glyph-name="i" unicode="i" horiz-adv-x="218" 
d="M109 618q-20 0 -25.5 9.5t-0.5 34.5q4 25 13 34t29 9q19 0 25 -9t1 -34t-13.5 -34.5t-28.5 -9.5zM243 282q3 14 30 14q11 0 19 -4t7 -10q-27 -151 -72 -221.5t-119 -70.5q-52 0 -79.5 32.5t-27.5 93.5q0 27 6 60l61 365q2 9 11 9h37q11 0 9 -11l-61 -363q-5 -27 -5 -45
q0 -40 15.5 -62.5t43.5 -22.5q43 0 72.5 55.5t52.5 180.5z" />
    <glyph glyph-name="j" unicode="j" horiz-adv-x="200" 
d="M113 620q-28 0 -28 24q0 63 43 63q16 0 22.5 -5.5t6.5 -19.5q0 -62 -44 -62zM225 282q2 10 16.5 15t28 1t11.5 -16q-20 -113 -77 -188.5t-184 -160.5q-15 -76 -33.5 -132.5t-42 -94.5t-52.5 -56.5t-64 -18.5q-39 0 -62.5 23t-23.5 59q0 28 15.5 58.5t36 54t55 51t59 44.5
t61.5 40l101 580q1 9 11 9h36q11 0 9 -11l-94 -536q92 64 134.5 126.5t58.5 152.5zM-165 -313q75 0 120 204q-25 -17 -45 -31.5t-41.5 -33t-36 -35t-24 -35t-9.5 -35.5q0 -16 9.5 -25t26.5 -9z" />
    <glyph glyph-name="k" unicode="k" horiz-adv-x="420" 
d="M445 282q2 10 17 14t28 -0.5t11 -13.5q-26 -149 -76 -220.5t-133 -71.5q-79 0 -118.5 71t-45.5 217q-22 -3 -47 -4l-46 -264q-2 -9 -11 -9h-38q-11 0 -9 11l139 789q1 9 11 9h37q11 0 9 -11l-82 -469q78 3 125.5 52.5t67.5 158.5q1 9 11 9l36 -1q11 0 8 -13
q-23 -98 -59.5 -156.5t-94.5 -84.5q10 -249 115 -249q54 0 89 56.5t56 179.5z" />
    <glyph glyph-name="l" unicode="l" horiz-adv-x="235" 
d="M260 282q3 13 29 13q12 0 20.5 -3.5t6.5 -9.5q-28 -148 -75.5 -217.5t-126.5 -69.5q-112 0 -112 130q0 33 6 67l108 610q2 9 11 9h37q11 0 9 -11l-108 -608q-5 -28 -5 -51q0 -90 64 -90q48 0 80 54.5t56 176.5z" />
    <glyph glyph-name="m" unicode="m" horiz-adv-x="684" 
d="M709 282q3 13 33 12q25 -1 23 -12q-27 -151 -72 -221.5t-119 -70.5q-103 0 -103 130q0 43 8 86l35 197q3 15 3 29q0 32 -14.5 50.5t-41.5 18.5t-53 -17.5t-46 -49.5t-27 -71h-1l-61 -354q-2 -9 -11 -9h-36q-11 0 -9 11l65 372q5 28 5 48q0 70 -59 70q-42 0 -83 -45
t-49 -93h-1l-61 -354q-2 -9 -11 -9h-36q-11 0 -9 11l92 530q1 9 11 9h36q11 0 9 -11l-7 -41q56 59 119 59q81 0 100 -75q56 75 133 75q48 0 75.5 -30.5t27.5 -84.5q0 -11 -4 -39l-35 -197q-7 -39 -7 -72q0 -88 56 -88q43 0 72.5 55.5t52.5 180.5zM574 -10z" />
    <glyph glyph-name="n" unicode="n" horiz-adv-x="456" 
d="M481 282q2 10 16.5 14.5t28 0t11.5 -14.5q-18 -101 -43 -164.5t-61.5 -95.5t-86.5 -32q-103 0 -103 130q0 43 8 86l35 201q3 15 3 30q0 68 -60 68q-42 0 -81 -40t-51 -92l-63 -364q-2 -9 -11 -9h-36q-11 0 -9 11l92 530q1 9 11 9h36q11 0 9 -11l-6 -33q54 55 118 55
q51 0 79.5 -30.5t28.5 -83.5q0 -21 -4 -40l-35 -201q-7 -39 -7 -72q0 -88 56 -88q44 0 73.5 56t51.5 180z" />
    <glyph glyph-name="o" unicode="o" horiz-adv-x="391" 
d="M129 -10q-62 0 -90.5 36t-28.5 114q0 58 15 142q26 146 73 211.5t131 65.5q60 0 88 -35.5t28 -111.5q0 -53 -14 -135q-27 -151 -73.5 -219t-128.5 -68zM139 46q53 0 83.5 51t52.5 180q15 81 15 130q0 52 -17 74t-54 22q-56 0 -86 -48t-52 -173q-15 -87 -15 -138
q0 -53 17 -75.5t56 -22.5z" />
    <glyph glyph-name="p" unicode="p" horiz-adv-x="391" 
d="M225 556q32 0 55 -9.5t36.5 -29t20.5 -44.5t7 -59.5t-3.5 -69.5t-11.5 -80q-26 -145 -72 -209.5t-126 -64.5q-29 0 -54.5 15.5t-36.5 41.5l-68 -388q-2 -9 -11 -9h-36q-11 0 -9 11l154 880q2 9 11 9h36q11 0 9 -11l-4 -25q38 42 103 42zM273 264q6 33 9 56.5t5.5 50
t1 44.5t-5.5 35t-12.5 27.5t-22.5 16.5t-33 6q-53 0 -82.5 -50.5t-53.5 -180.5q-8 -43 -12 -73t-3.5 -61t7.5 -49.5t23 -30.5t41 -12q51 0 84 50t54 171z" />
    <glyph glyph-name="q" unicode="q" horiz-adv-x="412" 
d="M369 550q11 0 9 -11l-154 -880q-1 -9 -11 -9h-36q-11 0 -9 11l65 372q-39 -43 -104 -43q-32 0 -55 10t-36.5 29t-20.5 44t-7 59.5t3.5 69.5t11.5 80q26 145 72 209.5t126 64.5q30 0 55 -15.5t36 -42.5l8 43q1 9 11 9h36zM139 46q53 0 82.5 50.5t53.5 180.5q9 51 12 89.5
t-1.5 70.5t-21.5 49t-45 17q-51 0 -84 -50t-54 -171q-7 -39 -10.5 -65.5t-5 -56t2 -48t11 -35t23 -24t37.5 -7.5z" />
    <glyph glyph-name="r" unicode="r" horiz-adv-x="399" 
d="M424 282q2 14 32 13q24 -1 24 -13q-27 -152 -71 -222t-118 -70q-52 0 -79.5 32.5t-27.5 93.5q0 31 25.5 169.5t25.5 153.5q0 18 -11.5 32t-25 21t-38 18.5t-35.5 17.5q-8 -48 -24 -135.5t-20 -110.5q-2 -14 -32 -13q-25 1 -24 13q31 168 56 320q2 11 12 9l36 -4
q8 -1 9 -10q3 -16 27.5 -30t52.5 -24t51 -34t23 -59q0 -23 -25 -157t-25 -161q0 -40 15.5 -63t43.5 -23q43 0 72.5 55t50.5 181z" />
    <glyph glyph-name="s" unicode="s" horiz-adv-x="333" 
d="M114 -14q-46 0 -78 12q-9 4 -5 14l16 37q4 9 13 5q27 -12 65 -12q47 0 81 33t34 88q0 29 -8 56.5t-23 52.5t-30.5 47t-36 52.5t-35.5 56.5q-11 -71 -26 -146q-2 -13 -32 -13q-25 1 -24 13q42 217 55 315q1 9 10 9h38q10 0 9 -11q-1 -16 -1 -37q0 -47 16.5 -89.5t40 -75
t47.5 -64t41 -70.5t17 -82q1 -89 -49.5 -140t-134.5 -51z" />
    <glyph glyph-name="t" unicode="t" horiz-adv-x="246" 
d="M271 282q2 14 32 13q26 0 24 -13q-29 -161 -73 -226.5t-126 -65.5q-123 0 -123 143q0 35 7 73l50 288h-32q-11 0 -9 11l6 36q1 9 10 9h35l25 141q1 9 11 9h37q11 0 9 -11l-24 -139h76q11 0 9 -11l-6 -36q-1 -9 -10 -9h-79l-51 -288q-5 -26 -5 -57q0 -103 74 -103
q50 0 79.5 51.5t53.5 184.5z" />
    <glyph glyph-name="u" unicode="u" horiz-adv-x="457" 
d="M512 296q7 0 13.5 -1.5t10 -5t2.5 -7.5q-27 -152 -71.5 -221.5t-119.5 -69.5q-80 0 -100 76q-57 -77 -142 -77q-51 0 -79.5 30.5t-28.5 83.5q0 21 4 40l69 397q2 9 11 9h36q11 0 9 -11l-69 -395q-3 -15 -3 -29q0 -69 61 -69q44 0 80.5 36.5t49.5 94.5l2 10l62 354
q1 9 11 9h36q11 0 9 -11l-62 -352q-5 -32 -5 -51q0 -43 15 -66t44 -23q44 0 73.5 56t51.5 179q3 14 30 14z" />
    <glyph glyph-name="v" unicode="v" horiz-adv-x="367" 
d="M105 -10q-51 0 -79.5 30.5t-28.5 83.5q0 21 4 40l69 397q2 9 11 9h37q11 0 9 -11l-69 -395q-3 -16 -3 -30q0 -68 60 -68q53 0 83 50.5t53 179.5q16 93 16 137q0 73 -37 97q-9 6 -4 14l19 34q5 8 14 4q17 -9 28.5 -22t19.5 -30t12 -39t4 -49q0 -60 -16 -146
q-27 -150 -74 -218t-128 -68z" />
    <glyph glyph-name="w" unicode="w" horiz-adv-x="593" 
d="M485 562q33 -19 48.5 -52t15.5 -88q0 -60 -16 -146q-27 -150 -74 -218t-128 -68q-79 0 -101 68q-52 -68 -120 -68q-53 0 -83 31t-30 84q0 12 4 39l69 397q2 9 11 9h37q11 0 9 -11l-69 -395q-3 -15 -3 -27q0 -33 17 -52t48 -19q37 0 70 38.5t43 94.5l42 242q1 9 11 9h37
q11 0 9 -11l-48 -275q-3 -16 -3 -30q0 -32 15.5 -50t44.5 -18q53 0 83 50.5t53 179.5q16 93 16 137q0 73 -37 97q-9 6 -4 14l19 34q5 9 14 4z" />
    <glyph glyph-name="x" unicode="x" horiz-adv-x="551" 
d="M576 282q2 14 31 13q27 0 25 -13q-28 -157 -79 -224.5t-132 -67.5q-60 0 -98.5 32t-48.5 90q-51 -122 -148 -122q-60 0 -88.5 33.5t-28.5 102.5q0 64 15 147q1 9 11 9h36q10 0 9 -11q-14 -87 -14 -133q0 -92 70 -92q81 0 124 215q16 80 16 136q0 105 -56 105
q-30 0 -51 -29.5t-23 -74.5q-1 -10 -9 -11l-37 -3q-5 -1 -8 2t-3 8q4 70 43 117t92 47q93 0 106 -119q54 119 140 119q44 0 68 -28t24 -74q0 -32 -10 -63q-3 -9 -12 -8l-35 3q-11 1 -8 12q7 23 7 43q0 27 -12 43t-33 16q-39 0 -70 -56.5t-50 -168.5q-12 -67 -12 -115
q0 -60 26.5 -87.5t72.5 -27.5q54 0 90.5 53t59.5 182z" />
    <glyph glyph-name="y" unicode="y" horiz-adv-x="442" 
d="M466 277q3 11 17.5 14.5t27.5 -1t11 -13.5q-22 -115 -80 -191t-185 -161q-29 -149 -75.5 -222t-114.5 -73q-39 0 -62.5 23t-23.5 59q0 110 225 244l17 93q-54 -59 -118 -59q-51 0 -79.5 30.5t-28.5 83.5q0 21 4 40l69 397q2 9 11 9h36q10 0 9 -11l-69 -395q-3 -15 -3 -29
q0 -69 61 -69q42 0 79.5 44.5t54.5 110.5l60 340q1 9 11 9h36q10 0 9 -11l-96 -543q93 64 136 127t61 154zM73 -314q75 0 120 200q-156 -97 -156 -166q0 -16 10 -25t26 -9z" />
    <glyph glyph-name="z" unicode="z" horiz-adv-x="406" 
d="M431 282q2 11 16.5 14.5t27.5 -1t12 -13.5q-21 -107 -69 -177.5t-139 -129.5q-10 -66 -29 -125.5t-45.5 -109.5t-63 -79.5t-77.5 -29.5q-39 0 -62.5 23t-23.5 59q0 130 248 289q9 57 9 100q0 45 -18.5 67.5t-64.5 22.5q-6 0 -27 -1q-5 -1 -8 2.5t-3 8.5l3 35q0 8 7 9
q4 0 10 1l143 251h-62q-56 0 -91 19q-19 -111 -43 -235q-2 -13 -32 -13q-25 1 -24 13q19 99 56 314q1 9 10 9h37q9 0 10 -9q1 -8 6 -14.5t13 -11.5t19.5 -8.5t25.5 -5.5t30 -2h90q7 0 12 -6l14 -19q4 -6 0 -13l-152 -269q52 -7 73.5 -41.5t21.5 -94.5q0 -32 -3 -67
q61 47 94 101.5t49 136.5zM71 -313q31 0 59.5 37t48.5 89.5t34 117.5q-178 -124 -178 -210q0 -16 9.5 -25t26.5 -9z" />
    <glyph glyph-name="braceleft" unicode="{" horiz-adv-x="259" 
d="M100 -212q-58 0 -64.5 48t17.5 145q8 43 12 67q15 82 20 131.5t1.5 71t-14.5 22.5l-10 1q-11 1 -9 11l6 31q1 9 10 10l13 1q17 2 34 53t38 172q4 23 9.5 55.5t8.5 49.5t7.5 41.5t8.5 36t10.5 27.5t13.5 23t17 14.5t22.5 10t28.5 2.5q11 0 23 -2q11 -1 8 -11l-8 -29
q-3 -9 -11 -8q-5 1 -9 1q-11 0 -19 -3.5t-14 -13t-10 -19t-8 -29.5t-6.5 -35.5t-7.5 -45.5t-8 -52q-22 -122 -40 -183t-41 -82q15 -26 12 -84.5t-25 -180.5q-26 -150 -22 -173q3 -19 25 -21h7q11 0 10 -10l-2 -31q0 -9 -9 -10q-14 -2 -25 -2z" />
    <glyph glyph-name="bar" unicode="|" horiz-adv-x="258" 
d="M40 -126q-11 0 -9 11l143 812q2 9 11 9h38q11 0 9 -11l-143 -812q-2 -9 -11 -9h-38z" />
    <glyph glyph-name="braceright" unicode="}" horiz-adv-x="261" 
d="M-12 -212q-10 0 -23 2q-11 1 -8 11l8 29q3 9 11 8q5 -1 9 -1q11 0 19 3.5t14 13t10 19t8 29.5t6.5 35.5t7.5 45.5t8 52q22 122 40 183t41 82q-15 26 -12 84.5t25 180.5q26 150 22 173q-3 19 -24 21h-9q-3 0 -6 3t-3 7l1 31q1 9 10 10q14 2 25 2q58 0 64.5 -48t-17.5 -145
q-8 -43 -12 -67q-15 -82 -20 -131.5t-1.5 -71t14.5 -22.5l10 -1q11 -1 9 -11l-6 -31q-1 -9 -10 -10l-13 -1q-17 -2 -34 -53t-38 -172q-4 -21 -9 -50t-7.5 -46t-6.5 -39t-7.5 -34t-8.5 -27.5t-10.5 -23.5t-13 -17t-16.5 -13t-21 -7t-26 -3z" />
    <glyph glyph-name="asciitilde" unicode="~" horiz-adv-x="449" 
d="M262 376q38 -26 61 -26q27 0 42 35q3 9 12 7l32 -7q10 -2 7 -12q-11 -39 -38.5 -59t-64.5 -20q-39 0 -91 34q-38 26 -61 26q-24 0 -41 -36q-4 -8 -13 -6l-32 7q-10 2 -7 12q23 79 101 79q41 0 93 -34z" />
    <glyph glyph-name="exclamdown" unicode="&#xa1;" horiz-adv-x="190" 
d="M127 468q-8 0 -13 1.5t-9 4.5t-5.5 8t-1.5 12.5t2 17.5q2 12 5.5 20.5t8.5 14t12 7.5t17 2q15 0 22 -6t7 -20q0 -8 -2 -18q-3 -17 -8.5 -26.5t-13.5 -13.5t-21 -4zM-4 -168q-11 0 -9 11l92 502q2 9 11 9h30q11 0 9 -11l-81 -502q-1 -9 -10 -9h-42z" />
    <glyph glyph-name="cent" unicode="&#xa2;" horiz-adv-x="344" 
d="M297 708q22 -6 37 -19.5t22.5 -34.5t7.5 -47q0 -35 -13 -76q-3 -8 -12 -7l-34 3q-11 1 -8 12q9 30 9 54q0 30 -13.5 46.5t-37.5 16.5q-92 0 -129 -208q-7 -43 -7 -76q0 -109 80 -109q47 0 72 31q6 8 14 2l24 -21q8 -6 2 -14q-39 -47 -102 -53l-5 -32q-2 -9 -11 -9h-38
q-11 0 -9 11l6 33q-90 22 -90 151q0 39 9 86q42 239 169 262l4 27q2 9 11 9h38q11 0 9 -11z" />
    <glyph glyph-name="sterling" unicode="&#xa3;" horiz-adv-x="365" 
d="M364 690q10 -4 5 -13l-19 -36q-5 -9 -14 -5q-44 20 -90 20q-50 0 -84.5 -28.5t-42.5 -77.5q-4 -21 -4 -46t1.5 -40t6 -45.5t5.5 -42.5h139q11 0 9 -11l-7 -38q-1 -9 -10 -9h-127q1 -40 -6 -79q-9 -48 -27 -89.5t-52 -92.5h210q11 0 9 -11l-7 -38q-1 -9 -11 -9h-261
q-9 0 -13.5 6t-3.5 14l4 22q0 2 3 8q41 56 62 99t29 92q6 37 4 78h-50q-11 0 -9 11l6 38q2 9 11 9h37q-1 4 -3.5 22.5t-3.5 25t-2.5 22.5t-1.5 25.5v24t1 27.5t4 27q8 48 35.5 85t69.5 57.5t90 20.5q55 0 108 -23z" />
    <glyph glyph-name="yen" unicode="&#xa5;" horiz-adv-x="395" 
d="M432 696q12 -2 6 -12l-178 -308h72q11 0 9 -11l-7 -38q-1 -9 -10 -9h-90l-9 -52h88q11 0 9 -11l-7 -38q-1 -9 -11 -9h-89l-36 -199q-1 -9 -10 -9h-38q-11 0 -9 11l35 197h-89q-11 0 -10 11l7 38q2 9 11 9h91l9 52h-89q-11 0 -9 11l7 38q1 9 10 9h76l-69 308q-3 10 7 12
l40 8q10 2 12 -8l60 -285l163 287q4 8 13 6z" />
    <glyph glyph-name="brokenbar" unicode="&#xa6;" horiz-adv-x="258" 
d="M130 382q-11 0 -9 11l53 304q2 9 11 9h38q11 0 9 -11l-54 -304q-1 -9 -10 -9h-38zM40 -126q-11 0 -9 11l54 304q1 9 11 9h37q11 0 10 -11l-54 -304q-2 -9 -11 -9h-38z" />
    <glyph glyph-name="section" unicode="&#xa7;" horiz-adv-x="477" 
d="M162 44q-43 0 -93 13q-10 3 -6 13l15 35q4 9 13 7q48 -12 81 -12q125 0 139 76q2 16 -2.5 29.5t-19 27t-26.5 22t-36 23.5q-10 7 -16 10q-3 2 -8 5q-12 8 -17.5 11.5t-16.5 11t-16.5 12t-14.5 12.5t-13.5 14t-10.5 14.5t-8.5 17t-5 18.5t-2.5 21t2 23q3 16 11.5 32.5
t21 30t27.5 24.5t31 18q-43 44 -31 101q11 55 58 85t124 30q34 0 71 -11q11 -3 6 -13l-18 -36q-4 -8 -13 -5q-29 9 -56 9q-106 0 -116 -59q-6 -32 15 -54t82 -63q17 -12 27 -18q2 -2 10 -6.5t13 -8t14 -10.5t14 -12.5t13 -15t11 -18.5t8 -21.5t3.5 -25t-2.5 -29.5
q-6 -32 -31 -61t-57 -41q39 -44 31 -94q-12 -64 -65 -98t-140 -34zM304 317q26 0 43 14.5t21 40.5q0 11 1.5 18.5t-2.5 16t-6 14t-8 12.5t-9.5 10.5t-10.5 8.5l-10.5 7.5t-9.5 6.5t-7 5l-43.5 29t-18 9.5t-16.5 2.5q-16 0 -31.5 -9t-26.5 -23.5t-14 -31.5t1 -31t17.5 -27
t24.5 -21.5t34 -23.5l15 -9q28 -19 56 -19z" />
    <glyph glyph-name="dieresis" unicode="&#xa8;" horiz-adv-x="304" 
d="M162 614q-20 0 -25 9t-1 35q4 25 12.5 34t28.5 9t25.5 -9.5t1.5 -33.5q-5 -25 -13.5 -34.5t-28.5 -9.5zM305 614q-20 0 -25 9t-1 35q4 25 12.5 34t28.5 9t25.5 -9.5t1.5 -33.5q-5 -25 -13.5 -34.5t-28.5 -9.5z" />
    <glyph glyph-name="copyright" unicode="&#xa9;" horiz-adv-x="716" 
d="M308 -10q-139 0 -202 94.5t-31 273.5q64 367 362 367t234 -367q-65 -368 -363 -368zM318 48q125 0 195.5 75t99.5 235q19 106 5.5 174.5t-60.5 101.5t-131 33q-125 0 -195.5 -74.5t-98.5 -234.5q-14 -80 -8 -138.5t31 -96.5t65.5 -56.5t96.5 -18.5zM462 474q-9 -3 -12 8
q-8 37 -46 37q-45 0 -77 -46t-47 -132q-13 -73 7.5 -114t70.5 -41q39 0 62 19q7 7 14 1l23 -21q7 -7 0 -14q-42 -41 -110 -41q-76 0 -108 56.5t-15 154.5q20 111 69.5 172.5t121.5 61.5q27 0 47 -9t31.5 -26.5t14.5 -42.5q1 -9 -8 -12z" />
    <glyph glyph-name="guillemotleft" unicode="&#xab;" horiz-adv-x="309" 
d="M138 283q-3 10 3 18q51 67 106 158q4 8 13 5l28 -9q11 -3 5 -13q-32 -57 -97 -150q26 -75 44 -151q2 -9 -7 -12l-33 -9q-10 -3 -12 5q-3 14 -7.5 29.5t-10 31t-10.5 30.5t-11 33.5t-11 33.5zM34 283q-3 9 3 18q65 88 106 158q4 8 13 5l28 -8q11 -4 5 -14
q-36 -61 -98 -150q32 -92 45 -151q2 -9 -7 -12l-33 -9q-10 -3 -12 5q-16 71 -50 158z" />
    <glyph glyph-name="logicalnot" unicode="&#xac;" horiz-adv-x="428" 
d="M313 237q-11 0 -9 11l12 71h-240q-11 0 -9 11l7 38q1 9 11 9h279q9 0 13.5 -6t3.5 -14l-20 -111q-1 -9 -10 -9h-38z" />
    <glyph glyph-name="registered" unicode="&#xae;" horiz-adv-x="476" 
d="M332 810q198 0 156.5 -236t-239.5 -236t-156.5 236t239.5 236zM447 574q18 102 -11.5 148t-110.5 46t-126.5 -46t-63.5 -148q-18 -101 11 -147.5t110.5 -46.5t127 46.5t63.5 147.5zM313 713q21 0 35 -5t22 -15.5t10.5 -26.5t-1.5 -38q-8 -53 -49 -73l24 -83q4 -11 -8 -11
h-27q-9 0 -12 8l-22 77h-1h-17l-14 -76q-1 -9 -10 -9h-23q-11 0 -9 11l41 232q1 9 10 9h51zM336 628q5 25 -1.5 34t-28.5 9h-17l-15 -84h17q14 0 23 4t14 12.5t8 24.5z" />
    <glyph glyph-name="macron" unicode="&#xaf;" horiz-adv-x="324" 
d="M114 608q-11 0 -9 11l6 38q2 9 11 9h226q11 0 9 -11l-6 -38q-2 -9 -11 -9h-226z" />
    <glyph glyph-name="degree" unicode="&#xb0;" horiz-adv-x="278" 
d="M190 558q-88 0 -88 80q0 19 5 46t12 46.5t20.5 39.5t37.5 30t57 10q85 0 85 -83q0 -19 -4 -43q-5 -26 -12.5 -46t-21 -39.5t-37 -30t-54.5 -10.5zM197 596q35 0 53.5 20.5t26.5 67.5q4 21 4 36q0 18 -5.5 29t-17.5 16.5t-31 5.5q-18 0 -31.5 -5t-22 -12.5t-14.5 -20
t-8.5 -23t-5.5 -26.5q-4 -21 -4 -36q0 -19 6 -30t18 -16.5t32 -5.5z" />
    <glyph glyph-name="plusminus" unicode="&#xb1;" horiz-adv-x="435" 
d="M398 458q11 0 9 -11l-7 -38q-1 -9 -11 -9h-120l-22 -121q-1 -9 -11 -9h-37q-11 0 -9 11l21 119h-120q-11 0 -10 11l7 38q2 9 11 9h122l21 122q2 9 11 9h38q11 0 9 -11l-21 -120h119zM349 184q11 0 10 -11l-7 -38q-2 -9 -11 -9h-299q-11 0 -9 11l7 38q1 9 11 9h298z" />
    <glyph glyph-name="uni00B2" unicode="&#xb2;" horiz-adv-x="285" 
d="M226 790q48 0 67 -35t7 -102q-10 -56 -47.5 -131.5t-82.5 -123.5q24 -14 49 -14q17 0 38 15q7 6 13 -2l11 -15q6 -7 -1 -13q-30 -24 -66 -24q-41 0 -77 24q-30 -23 -57 -22q-22 1 -33 13.5t-7 32.5q8 40 55 40q19 0 43 -15q26 28 53.5 74t46 90t23.5 73q9 49 -1 71
t-41 22q-30 0 -48.5 -25t-22.5 -71q-1 -9 -9 -10l-21 -2q-11 -1 -10 10q4 62 37 101t81 39zM83 386q9 0 19 5q-8 3 -16 3q-7 0 -7 -5q0 -3 4 -3z" />
    <glyph glyph-name="uni00B3" unicode="&#xb3;" horiz-adv-x="274" 
d="M236 575q35 -23 35 -76q0 -68 -37.5 -113.5t-104.5 -45.5q-33 0 -73 17q-10 4 -5 13l11 21q5 9 15 4q26 -14 58 -14q42 0 68.5 31t26.5 80q0 28 -12.5 43.5t-35.5 15.5h-24q-11 0 -9 11l4 21q1 9 11 9h26q7 0 16 6t17 16.5t15 24t11 29.5t4 31q0 50 -51 50
q-31 0 -49.5 -21t-22.5 -57q0 -9 -9 -10l-21 -2q-6 -1 -8.5 2t-1.5 8q4 35 20 62.5t41.5 43t57.5 15.5q40 0 63 -23t23 -63q0 -24 -7.5 -48t-20.5 -45t-31 -36z" />
    <glyph glyph-name="acute" unicode="&#xb4;" horiz-adv-x="242" 
d="M129 610q-4 0 -5.5 4.5t0.5 8.5l38 95q2 5 13 5h50q5 0 6 -4t-2 -9l-59 -97q-3 -4 -13 -4z" />
    <glyph glyph-name="paragraph" unicode="&#xb6;" horiz-adv-x="410" 
d="M447 810q11 0 9 -11l-7 -38q-2 -9 -11 -9h-73l-108 -612q-29 -166 -161 -166q-33 0 -78 16q-11 4 -6 14l19 35q5 9 14 5q35 -14 61 -14q41 0 63 25.5t32 84.5l26 146q-54 1 -77.5 7t-41.5 27q-21 25 -23.5 76.5t14.5 150.5q18 102 42 156.5t58 80.5q18 14 40.5 19.5t40 6
t77.5 0.5h90z" />
    <glyph glyph-name="periodcentered" unicode="&#xb7;" horiz-adv-x="166" 
d="M83 271q-15 0 -22 6t-7 19q0 6 2 14q4 20 13 29t27 9q27 0 27 -23q0 -7 -1 -15q-4 -21 -12.5 -30t-26.5 -9z" />
    <glyph glyph-name="cedilla" unicode="&#xb8;" horiz-adv-x="239" 
d="M53 -44q42 -1 58 -21.5t10 -55.5q-7 -41 -39.5 -65t-77.5 -24q-25 0 -49 10q-9 3 -4 13l20 34q5 7 14 4q12 -5 29 -5q45 0 51 33q3 15 -9.5 23.5t-44.5 5.5q-15 -1 -20 6.5t0 20.5l33 89q1 4 5 4h46q6 0 4 -6z" />
    <glyph glyph-name="uni00B9" unicode="&#xb9;" horiz-adv-x="175" 
d="M205 778q9 -3 7 -12l-72 -407q-1 -9 -11 -9h-21q-11 0 -10 11l58 322q-21 -28 -44 -52q-5 -7 -14 -2l-18 12q-8 6 -1 15q59 62 97 122q4 7 13 5z" />
    <glyph glyph-name="guillemotright" unicode="&#xbb;" horiz-adv-x="308" 
d="M277 283q-65 -87 -106 -158q-4 -8 -13 -5l-28 9q-11 3 -5 13q34 58 98 150q-31 89 -45 151q-2 9 7 12l34 9q9 3 12 -7q15 -69 49 -156q3 -9 -3 -18zM173 283q-51 -67 -106 -158q-4 -8 -13 -5l-28 9q-11 3 -5 13q32 57 97 150q-25 75 -44 150q-2 10 7 13l34 9q9 3 12 -7
q6 -28 25.5 -85.5t23.5 -70.5q3 -10 -3 -18z" />
    <glyph glyph-name="onequarter" unicode="&#xbc;" horiz-adv-x="650" 
d="M569 817q11 0 16.5 -3t2.5 -9l-481 -785q-7 -12 -34 -12q-10 0 -16 3t-2 9l481 785q7 12 33 12zM80 641q-8 6 -1 15q59 62 97 122q4 7 13 5l16 -5q9 -3 7 -12l-72 -407q-1 -9 -11 -9h-21q-11 0 -10 11l58 322q-21 -28 -44 -52q-5 -7 -14 -2zM590 117q5 -8 -3 -13
q-18 -11 -36 -17l-16 -91q-1 -9 -10 -9h-22q-11 0 -9 11l14 84q-16 0 -44.5 5t-40.5 5q-15 0 -22 -3q-8 -2 -14 3l-14 16q-5 8 -1 14q91 152 146 296q3 9 13 7l19 -4q10 -1 7 -12q-51 -133 -134 -276q6 1 17 1q15 0 40.5 -4.5t35.5 -4.5l22 131q2 9 11 9h22q11 0 9 -11
l-21 -122q4 2 9 4q9 5 14 -4z" />
    <glyph glyph-name="onehalf" unicode="&#xbd;" horiz-adv-x="673" 
d="M569 817q11 0 16.5 -3t2.5 -9l-481 -785q-7 -12 -34 -12q-10 0 -16 3t-2 9l481 785q7 12 33 12zM80 641q-8 6 -1 15q59 62 97 122q4 7 13 5l16 -5q9 -3 7 -12l-72 -407q-1 -9 -11 -9h-21q-11 0 -10 11l58 322q-21 -28 -44 -52q-5 -7 -14 -2zM552 438q48 0 67 -35t7 -102
q-10 -56 -47.5 -131.5t-82.5 -123.5q24 -14 49 -14q17 0 37 15q8 6 14 -2l11 -15q6 -7 -1 -13q-30 -24 -66 -24q-41 0 -77 24q-30 -23 -57 -22q-22 1 -33 13.5t-7 32.5q8 40 55 40q19 0 43 -15q39 42 77 116.5t46 120.5q7 33 3.5 53.5t-14.5 30t-31 9.5q-30 0 -48.5 -25
t-23.5 -71q0 -9 -8 -10l-21 -2q-11 -1 -10 10q4 62 37 101t81 39zM409 34q9 0 19 5q-8 3 -16 3q-7 0 -7 -5q0 -3 4 -3z" />
    <glyph glyph-name="threequarters" unicode="&#xbe;" horiz-adv-x="749" 
d="M668 817q11 0 16.5 -3t2.5 -9l-481 -785q-7 -12 -34 -12q-10 0 -16 3t-2 9l481 785q7 12 33 12zM271 499q0 -68 -37.5 -113.5t-104.5 -45.5q-33 0 -73 17q-10 4 -5 13l11 21q5 9 15 4q26 -14 58 -14q42 0 68.5 31t26.5 80q0 28 -12.5 43.5t-35.5 15.5h-24q-11 0 -9 11
l4 21q1 9 11 9h26q7 0 16 6t17 16.5t15 24t11 29.5t4 31q0 50 -51 50q-31 0 -49.5 -21t-22.5 -57q0 -9 -9 -10l-21 -2q-6 -1 -8.5 2t-1.5 8q4 35 20 62.5t41.5 43t57.5 15.5q40 0 63 -23t23 -63q0 -24 -7.5 -48t-20.5 -45t-31 -36q35 -23 35 -76zM689 117q5 -8 -3 -13
q-18 -11 -36 -17l-16 -91q-1 -9 -10 -9h-22q-11 0 -9 11l14 84q-16 0 -44.5 5t-40.5 5q-15 0 -22 -3q-8 -2 -14 3l-14 16q-5 8 -1 14q91 152 146 296q3 9 13 7l19 -4q10 -1 7 -12q-51 -133 -134 -276q6 1 17 1q9 0 20 -1t19 -2.5t18.5 -3.5t18.5 -2l22 131q2 9 11 9h22
q11 0 9 -11l-21 -122q4 2 9 4q9 5 14 -4z" />
    <glyph glyph-name="questiondown" unicode="&#xbf;" horiz-adv-x="361" 
d="M208 557q15 0 22 -6t7 -20q0 -8 -2 -18q-2 -17 -7.5 -26.5t-13.5 -13.5t-21 -4q-15 0 -22 6t-7 20q0 8 1 18q5 24 14.5 34t28.5 10zM156 352q1 10 11 10h35q11 0 10 -11q-10 -63 -33 -113t-50 -83.5t-53.5 -63t-48 -65.5t-28.5 -76q-4 -23 -4 -42q0 -31 10 -52t30 -32
t49 -11q59 0 96.5 51t44.5 137q0 9 9 10l37 4q11 1 10 -10q-5 -73 -32.5 -129.5t-73 -87.5t-101.5 -31q-43 0 -73.5 17t-46.5 48.5t-16 76.5q0 24 5 51q8 48 30.5 89t49.5 72.5t54 63.5t49 77.5t30 99.5z" />
    <glyph glyph-name="Agrave" unicode="&#xc0;" 
d="M578 869l-40 98q-3 12 8 12h56q8 0 10 -9l18 -98q2 -11 -9 -11h-32q-8 0 -11 8zM732 298q11 0 19 -4.5t7 -11.5q-19 -106 -45 -169t-62 -91.5t-88 -28.5q-50 0 -76 28.5t-26 81.5q0 25 6 59l15 87q-15 1 -32 3.5t-30 5.5t-32 7.5t-33 7.5q-26 -62 -52 -109.5t-57.5 -89
t-67.5 -63.5t-76 -22q-44 0 -73.5 13.5t-43 37.5t-13.5 57q0 16 3 34q7 38 28.5 73.5t57 66t91 49t121.5 18.5q26 0 50 -2q12 30 30.5 81t30.5 84t30.5 78.5t32.5 74.5t33 61.5t36.5 51.5t38.5 31.5t43 13.5h28q11 0 9 -10l-86 -494q34 5 53 17q11 6 14 -3l12 -29
q4 -10 -4 -15q-29 -18 -85 -26l-16 -90q-6 -34 -6 -51q0 -62 56 -62q47 0 76.5 51t52.5 182q3 16 30 16zM377 328q17 -3 41 -9t41.5 -9.5t32.5 -4.5l79 447q-18 -8 -37 -35.5t-38.5 -74t-36 -90.5t-40.5 -112t-42 -112zM111 45q54 0 99.5 61.5t91.5 173.5q-19 2 -39 2
q-55 0 -100.5 -17t-72.5 -43t-41.5 -55.5t-14.5 -57.5q0 -64 77 -64z" />
    <glyph glyph-name="Aacute" unicode="&#xc1;" 
d="M604 872q-4 0 -5.5 4.5t0.5 8.5l38 95q2 5 13 5h50q5 0 6 -4t-2 -9l-59 -97q-3 -4 -13 -4zM732 298q11 0 19 -4.5t7 -11.5q-19 -106 -45 -169t-62 -91.5t-88 -28.5q-50 0 -76 28.5t-26 81.5q0 25 6 59l15 87q-15 1 -32 3.5t-30 5.5t-32 7.5t-33 7.5q-26 -62 -52 -109.5
t-57.5 -89t-67.5 -63.5t-76 -22q-44 0 -73.5 13.5t-43 37.5t-13.5 57q0 16 3 34q7 38 28.5 73.5t57 66t91 49t121.5 18.5q26 0 50 -2q12 30 30.5 81t30.5 84t30.5 78.5t32.5 74.5t33 61.5t36.5 51.5t38.5 31.5t43 13.5h28q11 0 9 -10l-86 -494q34 5 53 17q11 6 14 -3l12 -29
q4 -10 -4 -15q-29 -18 -85 -26l-16 -90q-6 -34 -6 -51q0 -62 56 -62q47 0 76.5 51t52.5 182q3 16 30 16zM377 328q17 -3 41 -9t41.5 -9.5t32.5 -4.5l79 447q-18 -8 -37 -35.5t-38.5 -74t-36 -90.5t-40.5 -112t-42 -112zM111 45q54 0 99.5 61.5t91.5 173.5q-19 2 -39 2
q-55 0 -100.5 -17t-72.5 -43t-41.5 -55.5t-14.5 -57.5q0 -64 77 -64z" />
    <glyph glyph-name="Acircumflex" unicode="&#xc2;" 
d="M505 871q-13 0 -5 12l72 99q5 7 13 7h54q8 0 11 -7l36 -99q5 -12 -9 -12h-30q-7 0 -11 6l-34 58l-54 -58q-5 -6 -13 -6h-30zM732 298q11 0 19 -4.5t7 -11.5q-19 -106 -45 -169t-62 -91.5t-88 -28.5q-50 0 -76 28.5t-26 81.5q0 25 6 59l15 87q-19 1 -39.5 4.5t-46.5 10
t-41 9.5q-26 -62 -52 -109.5t-57 -89t-67.5 -63.5t-76.5 -22q-44 0 -73.5 13.5t-43 37.5t-13.5 57q0 16 3 34q7 38 28.5 73.5t57 66t91 49t121.5 18.5q26 0 50 -2q12 30 30.5 81t31 84t30.5 78.5t32 74.5t33 61.5t36.5 51.5t38.5 31.5t43 13.5h28q11 0 9 -10l-86 -494
q34 5 53 17q11 6 14 -3l12 -29q4 -10 -4 -15q-29 -18 -85 -26l-16 -90q-6 -34 -6 -51q0 -62 56 -62q47 0 76.5 51t52.5 182q3 16 30 16zM377 328q17 -3 41 -9t41.5 -9.5t32.5 -4.5l79 447q-18 -8 -37 -35.5t-38.5 -74t-36 -90.5t-40.5 -112t-42 -112zM111 45q54 0 99.5 61.5
t91.5 173.5q-19 2 -39 2q-55 0 -100.5 -17t-72.5 -43t-41.5 -55.5t-14.5 -57.5q0 -64 77 -64z" />
    <glyph glyph-name="Atilde" unicode="&#xc3;" 
d="M492 877q-11 0 -9 10q5 36 27.5 58t58.5 22q30 0 68 -29q28 -21 40 -21q11 0 19 7t9.5 16.5t10.5 9.5h30q11 0 10 -10q-4 -33 -29 -56t-60 -23q-29 0 -67 28q-3 2 -4 3q-23 19 -37 19q-5 0 -9.5 -2t-9 -8t-6.5 -14q-2 -10 -10 -10h-32zM732 298q11 0 19 -4.5t7 -11.5
q-19 -106 -45 -169t-62 -91.5t-88 -28.5q-50 0 -76 28.5t-26 81.5q0 25 6 59l15 87q-19 1 -39.5 4.5t-46.5 10t-41 9.5q-26 -62 -52 -109.5t-57.5 -89t-68 -63.5t-75.5 -22q-44 0 -73.5 13.5t-43 37.5t-13.5 57q0 16 3 34q7 38 28.5 73.5t57 66t91 49t121.5 18.5q26 0 50 -2
q12 30 30.5 81t30.5 84t30.5 78.5t32.5 74.5t33 61.5t36.5 51.5t38.5 31.5t43 13.5h28q11 0 9 -10l-86 -494q34 5 53 17q11 6 14 -3l12 -29q4 -10 -4 -15q-29 -18 -85 -26l-16 -90q-6 -34 -6 -51q0 -62 56 -62q47 0 76 51t53 182q3 16 30 16zM377 328q15 -3 33 -7t30 -7
t26 -5.5t26 -3.5l79 447q-18 -8 -37 -35.5t-38.5 -74t-36 -90.5t-40.5 -112t-42 -112zM111 45q54 0 99.5 61.5t91.5 173.5q-19 2 -39 2q-55 0 -100.5 -17t-72.5 -43t-41.5 -55.5t-14.5 -57.5q0 -64 77 -64z" />
    <glyph glyph-name="Adieresis" unicode="&#xc4;" 
d="M539 876q-20 0 -25 9t-1 35q4 25 12.5 34t28.5 9t25.5 -9.5t1.5 -33.5q-5 -25 -13.5 -34.5t-28.5 -9.5zM682 876q-20 0 -25 9t-1 35q4 25 12.5 34t28.5 9t25.5 -9.5t1.5 -33.5q-5 -25 -13.5 -34.5t-28.5 -9.5zM732 298q11 0 19 -4.5t7 -11.5q-19 -106 -45 -169t-62 -91.5
t-88 -28.5q-50 0 -76 28.5t-26 81.5q0 25 6 59l15 87q-15 1 -32 3.5t-30 5.5t-32 7.5t-33 7.5q-26 -62 -52 -109.5t-57.5 -89t-67.5 -63.5t-76 -22q-44 0 -73.5 13.5t-43 37.5t-13.5 57q0 16 3 34q7 38 28.5 73.5t57 66t91 49t121.5 18.5q26 0 50 -2q12 30 30.5 81t30.5 84
t30.5 78.5t32.5 74.5t33 61.5t36.5 51.5t38.5 31.5t43 13.5h28q11 0 9 -10l-86 -494q34 5 53 17q11 6 14 -3l12 -29q4 -10 -4 -15q-29 -18 -85 -26l-16 -90q-6 -34 -6 -51q0 -62 56 -62q47 0 76.5 51t52.5 182q3 16 30 16zM377 328q17 -3 41 -9t41.5 -9.5t32.5 -4.5l79 447
q-18 -8 -37 -35.5t-38.5 -74t-36 -90.5t-40.5 -112t-42 -112zM111 45q54 0 99.5 61.5t91.5 173.5q-19 2 -39 2q-55 0 -100.5 -17t-72.5 -43t-41.5 -55.5t-14.5 -57.5q0 -64 77 -64z" />
    <glyph glyph-name="Aring" unicode="&#xc5;" 
d="M608 868q-40 0 -58 22t-11 60t31.5 60.5t61.5 22.5q40 0 58 -21.5t11 -61.5q-7 -38 -32 -60t-61 -22zM595 950q-3 -15 2 -20.5t21 -5.5q22 0 27 26q3 16 -1.5 21.5t-20.5 5.5q-24 0 -28 -27zM732 298q11 0 19 -4.5t7 -11.5q-19 -106 -45 -169t-62 -91.5t-88 -28.5
q-50 0 -76 28.5t-26 81.5q0 25 6 59l15 87q-15 1 -32 3.5t-30 5.5t-32 7.5t-33 7.5q-26 -62 -52 -109.5t-57.5 -89t-67.5 -63.5t-76 -22q-44 0 -73.5 13.5t-43 37.5t-13.5 57q0 16 3 34q7 38 28.5 73.5t57 66t91 49t121.5 18.5q26 0 50 -2q12 30 30.5 81t30.5 84t30.5 78.5
t32.5 74.5t33 61.5t36.5 51.5t38.5 31.5t43 13.5h28q11 0 9 -10l-86 -494q34 5 53 17q11 6 14 -3l12 -29q4 -10 -4 -15q-29 -18 -85 -26l-16 -90q-6 -34 -6 -51q0 -62 56 -62q47 0 76.5 51t52.5 182q3 16 30 16zM377 328q17 -3 41 -9t41.5 -9.5t32.5 -4.5l79 447
q-18 -8 -37 -35.5t-38.5 -74t-36 -90.5t-40.5 -112t-42 -112zM111 45q54 0 99.5 61.5t91.5 173.5q-19 2 -39 2q-55 0 -100.5 -17t-72.5 -43t-41.5 -55.5t-14.5 -57.5q0 -64 77 -64z" />
    <glyph glyph-name="AE" unicode="&#xc6;" horiz-adv-x="922" 
d="M980 303q7 0 12.5 -2t8.5 -7t2 -12q-18 -101 -58.5 -170.5t-102 -105.5t-141.5 -36q-108 0 -166 49.5t-58 141.5q0 21 3 44q0 42 4 89q-38 1 -118 11q-29 -73 -56 -127.5t-60.5 -104t-72 -76t-79.5 -26.5q-61 0 -93.5 35.5t-32.5 91.5q0 45 21 91.5t58 87t97.5 66
t130.5 25.5q19 0 53 -2q8 23 25 71q15 42 23 64t22.5 61t24 60t24.5 52.5t27 49.5t28.5 39.5t31.5 33t33.5 20.5t37.5 11q5 0 7.5 -3t1.5 -8q-13 -79 -21 -124q29 70 83.5 108t127.5 38t111.5 -34.5t38.5 -99.5q0 -39 -14 -86q-3 -9 -12 -8l-35 4q-11 1 -8 12q11 39 11 68
q0 88 -101 88q-68 0 -110.5 -42t-57.5 -123q-4 -25 -4 -46q0 -36 12 -60.5t36.5 -37t59.5 -12.5q11 0 9 -11l-6 -36q-2 -9 -11 -9q-77 -3 -125.5 -53t-63.5 -133q-4 -26 -4 -49q0 -71 45 -108t132 -37q92 0 154.5 67.5t83.5 188.5q2 10 11 15.5t20 5.5zM387 360
q72 -10 102 -10q16 141 61 397q-12 -15 -26 -39.5t-25.5 -51t-27 -66t-26.5 -71t-28.5 -79.5t-29.5 -80zM627 435q-48 35 -55 106q-16 -97 -24 -170q33 41 79 64zM108 27q30 0 57.5 21.5t53 63.5t46.5 88t46 110q-27 2 -41 2q-57 0 -104 -19.5t-76 -50t-45 -65t-16 -67.5
q0 -37 20.5 -60t58.5 -23z" />
    <glyph glyph-name="Ccedilla" unicode="&#xc7;" horiz-adv-x="420" 
d="M445 282q2 14 32 13q25 -1 24 -13q-52 -292 -271 -292h-17l-13 -34q42 -1 58 -21.5t10 -55.5q-7 -41 -39.5 -65t-77.5 -24q-25 0 -49 10q-9 3 -4 13l20 34q5 7 14 4q12 -5 29 -5q45 0 51 33q3 15 -9.5 23.5t-44.5 5.5q-15 -1 -20 6t0 21l23 62q-200 44 -143 378
q42 242 111.5 346t191.5 104q132 0 132 -144q0 -35 -10 -65q-3 -9 -13 -8l-29 2q-11 1 -9 11q7 33 7 58q0 90 -88 90q-92 0 -145.5 -88.5t-91.5 -305.5q-59 -329 166 -329q73 0 128 55t77 181z" />
    <glyph glyph-name="Egrave" unicode="&#xc8;" horiz-adv-x="460" 
d="M345 872q-8 0 -11 8l-40 98q-3 12 8 12h56q9 0 10 -9l18 -98q2 -11 -9 -11h-32zM242 -15q-123 0 -186.5 57t-63.5 161q0 88 46.5 152.5t128.5 90.5q-23 15 -39 54t-16 84q-2 98 52.5 166t144.5 68q44 0 75 -15t44 -40t16 -57t-6 -67q-2 -9 -12 -8l-35 2q-10 1 -8 12
q6 20 4 41t-8.5 37.5t-25 27.5t-47.5 11q-65 0 -102.5 -53t-36.5 -125q1 -31 11 -55.5t27.5 -40t39.5 -22.5q7 -2 30 -5q12 -2 10 -11l-6 -36q-2 -8 -10 -8q-20 0 -30 -1q-61 -5 -104 -32t-64.5 -70t-21.5 -100q0 -78 52 -120t141 -42q86 0 155 66.5t88 174.5q2 10 17 14.5
t28 0t11 -14.5q-24 -137 -107.5 -217t-191.5 -80z" />
    <glyph glyph-name="Eacute" unicode="&#xc9;" horiz-adv-x="460" 
d="M360 883q-4 0 -5.5 4.5t0.5 8.5l38 95q2 5 13 5h50q5 0 6 -4t-2 -9l-59 -97q-3 -4 -13 -4zM242 -15q-123 0 -186.5 57t-63.5 161q0 88 46.5 152.5t128.5 90.5q-23 15 -39 53.5t-16 84.5q-2 98 52.5 166t144.5 68q44 0 75 -15t44 -40t16 -57t-6 -67q-2 -9 -12 -8l-35 2
q-10 1 -8 12q6 20 4 40.5t-8.5 37.5t-25 28t-47.5 11q-65 0 -102.5 -53t-36.5 -125q2 -46 23 -77t55 -41q7 -2 30 -5q12 -2 10 -11l-6 -36q-2 -8 -10 -8q-20 0 -30 -1q-61 -5 -104 -32t-64.5 -70t-21.5 -100q0 -78 52 -120t141 -42q86 0 155 66.5t88 174.5q2 10 17 14.5
t28 0t11 -14.5q-24 -137 -107.5 -217t-191.5 -80z" />
    <glyph glyph-name="Ecircumflex" unicode="&#xca;" horiz-adv-x="460" 
d="M442 894q5 -12 -9 -12h-30q-7 0 -11 6l-33 58l-55 -58q-5 -6 -13 -6h-30q-13 0 -5 12l72 99q5 7 13 7h54q8 0 11 -7zM242 -15q-123 0 -186.5 57t-63.5 161q0 88 46.5 152.5t128.5 90.5q-23 15 -39 54t-16 84q-2 98 52.5 166t144.5 68q45 0 75.5 -15t43.5 -40t16 -57
t-6 -67q-2 -9 -12 -8l-35 2q-10 1 -8 12q6 20 4 41t-8.5 37.5t-25 27.5t-47.5 11q-65 0 -102.5 -53t-36.5 -125q1 -31 11 -55.5t27.5 -40t39.5 -22.5q7 -2 30 -5q12 -2 10 -11l-6 -36q-2 -8 -10 -8q-20 0 -30 -1q-91 -8 -140.5 -62t-49.5 -140q0 -78 52.5 -120t140.5 -42
q86 0 155 66.5t88 174.5q2 10 17 14.5t28 0t11 -14.5q-24 -137 -107.5 -217t-191.5 -80z" />
    <glyph glyph-name="Edieresis" unicode="&#xcb;" horiz-adv-x="460" 
d="M295 887q-10 0 -16 2t-9 7.5t-3 14t2 20.5q4 25 13 34t28.5 9t25.5 -9.5t1 -33.5q-4 -25 -13 -34.5t-29 -9.5zM438 887q-20 0 -25 9t-1 35q4 25 13 34t28.5 9t25.5 -9.5t1 -33.5q-3 -17 -7.5 -26t-12.5 -13.5t-22 -4.5zM242 -15q-123 0 -186.5 57t-63.5 161
q0 88 46.5 152.5t128.5 90.5q-23 15 -39 54t-16 84q-2 98 52.5 166t144.5 68q44 0 75 -15t44 -40t16 -57t-6 -67q-2 -9 -12 -8l-35 2q-10 1 -8 12q6 20 4 41t-8.5 37.5t-25 27.5t-47.5 11q-65 0 -102.5 -53t-36.5 -125q1 -31 11 -55.5t27.5 -40t39.5 -22.5q7 -2 30 -5
q12 -2 10 -11l-6 -36q-2 -8 -10 -8q-20 0 -30 -1q-61 -5 -104 -32t-64.5 -70t-21.5 -100q0 -78 52 -120t141 -42q86 0 155 66.5t88 174.5q2 10 17 14.5t28 0t11 -14.5q-24 -137 -107.5 -217t-191.5 -80z" />
    <glyph glyph-name="Igrave" unicode="&#xcc;" horiz-adv-x="454" 
d="M412 858q-8 0 -11 8l-40 98q-3 12 8 12h56q9 0 10 -9l18 -98q2 -11 -9 -11h-32zM142 -11q-88 0 -138.5 62t-37.5 159q2 9 11 9h36q11 0 9 -13q-5 -47 10 -84t46.5 -57t72.5 -20q67 0 101.5 77t68.5 277l61 347q-16 -6 -43 -14t-48.5 -15t-48.5 -18t-48 -26t-41 -36
t-34 -52t-21 -69q-4 -23 -4 -49q0 -51 20 -83t56 -36q11 -2 9 -11l-6 -37q-1 -9 -11 -9q-59 4 -92 48.5t-33 117.5q0 33 5 59q8 46 26 84t41 63.5t51.5 46t56.5 33t56 22.5t50.5 16.5t40.5 14t25 14.5q4 5 12 5h38q11 0 9 -11l-71 -405q-1 -9 -5 -27q-12 -67 -19 -100.5
t-20.5 -87.5t-29 -81.5t-38 -58t-53 -43t-70.5 -12.5z" />
    <glyph glyph-name="Iacute" unicode="&#xcd;" horiz-adv-x="454" 
d="M427 869q-4 0 -5.5 4.5t0.5 8.5l38 95q2 5 13 5h50q5 0 6 -4t-2 -9l-59 -97q-3 -4 -13 -4zM142 -11q-88 0 -138.5 62t-37.5 159q2 9 11 9h36q11 0 9 -13q-5 -47 10 -84t46.5 -57t72.5 -20q67 0 101.5 77t68.5 277l61 347q-16 -6 -43 -14t-48.5 -15t-48.5 -18t-48 -26
t-41 -36t-34 -52t-21 -69q-4 -23 -4 -49q0 -51 20 -83t56 -36q11 -2 9 -11l-6 -37q-1 -9 -11 -9q-39 2 -67.5 23.5t-43 58t-14.5 84.5q0 33 5 59q8 46 26 84t41 63.5t51.5 46t56.5 33t56 22.5t50.5 16.5t40.5 14t25 14.5q4 5 12 5h38q11 0 9 -11l-71 -405q-1 -9 -5 -27
q-12 -67 -19 -100.5t-20.5 -87.5t-29 -81.5t-38 -58t-53 -43t-70.5 -12.5z" />
    <glyph glyph-name="Icircumflex" unicode="&#xce;" horiz-adv-x="454" 
d="M509 880q5 -12 -9 -12h-30q-7 0 -11 6l-34 58l-54 -58q-5 -6 -13 -6h-30q-13 0 -5 12l72 99q5 7 13 7h54q8 0 11 -7zM142 -11q-88 0 -138.5 62t-36.5 159q1 9 10 9h36q11 0 9 -13q-5 -47 10 -84t46.5 -57t72.5 -20q67 0 101.5 77t68.5 277l61 347q-16 -6 -43 -14
t-48.5 -15t-48.5 -18t-48 -26t-41 -36t-34 -52t-21 -69q-4 -23 -4 -49q0 -51 20 -83t56 -36q11 -2 9 -11l-6 -37q-1 -9 -11 -9q-59 4 -92 48.5t-33 117.5q0 33 5 59q8 46 26 84t41 63.5t51.5 46t56.5 33t56 22.5t50.5 16.5t40.5 14t25 14.5q4 5 12 5h38q11 0 9 -11l-71 -405
q-1 -9 -5 -27q-12 -67 -19 -100.5t-20.5 -87.5t-29 -81.5t-38 -58t-53 -43t-70.5 -12.5z" />
    <glyph glyph-name="Idieresis" unicode="&#xcf;" horiz-adv-x="454" 
d="M362 873q-20 0 -25 9t-1 35q4 25 12.5 34t28.5 9t25.5 -9.5t1.5 -33.5q-5 -25 -13.5 -34.5t-28.5 -9.5zM505 873q-20 0 -25 9t-1 35q4 25 12.5 34t28.5 9t25.5 -9.5t1.5 -33.5q-5 -25 -13.5 -34.5t-28.5 -9.5zM142 -11q-88 0 -138.5 62t-37.5 159q2 9 11 9h36q11 0 9 -13
q-5 -47 10 -84t46.5 -57t72.5 -20q67 0 101.5 77t68.5 277l61 347q-16 -6 -43 -14t-48.5 -15t-48.5 -18t-48 -26t-41 -36t-34 -52t-21 -69q-4 -23 -4 -49q0 -51 20 -83t56 -36q11 -2 9 -11l-6 -37q-1 -9 -11 -9q-59 4 -92 48.5t-33 117.5q0 33 5 59q8 46 26 84t41 63.5
t51.5 46t56.5 33t56 22.5t50.5 16.5t40.5 14t25 14.5q4 5 12 5h38q11 0 9 -11l-71 -405q-1 -9 -5 -27q-12 -67 -19 -100.5t-20.5 -87.5t-29 -81.5t-38 -58t-53 -43t-70.5 -12.5z" />
    <glyph glyph-name="Eth" unicode="&#xd0;" horiz-adv-x="662" 
d="M388 825q260 0 260 -262q0 -84 -12.5 -165t-40 -156.5t-66.5 -132.5t-96.5 -91t-126.5 -34q-42 0 -73 12t-63 33q-42 -41 -101 -41q-33 0 -49.5 16.5t-16.5 40.5q0 32 25 56.5t66 24.5q32 0 65 -17q39 75 76 290q11 67 12 73h-31q-11 0 -9 11l6 38q2 9 11 9h34
q19 96 45.5 147t73.5 56q10 1 10 -9l2 -37q0 -8 -9 -10q-14 -4 -26 -23.5t-20.5 -48.5t-18.5 -75h75q11 0 9 -11l-7 -38q-1 -9 -10 -9h-78q-4 -22 -13 -73q-2 -11 -7 -41.5t-7.5 -44t-8 -41.5t-9 -44t-10 -40t-12.5 -40.5t-13.5 -35t-16.5 -33.5q60 -39 109 -39
q61 0 110.5 35.5t79.5 90t50 125.5t27.5 136t7.5 128q0 111 -53 162.5t-160 51.5q-138 0 -210 -81t-72 -222q0 -51 22 -83.5t55 -37.5q10 -2 8 -11l-6 -37q-1 -9 -11 -9q-51 4 -87.5 48.5t-36.5 131.5q0 162 94 259.5t254 97.5zM73 44q27 0 48 16q-22 10 -43 10
q-8 0 -12 -4.5t-4 -10.5q0 -11 11 -11z" />
    <glyph glyph-name="Ntilde" unicode="&#xd1;" horiz-adv-x="548" 
d="M195 875q-11 0 -10 10q5 36 27.5 58t58.5 22q30 0 68 -29q28 -21 40 -21q11 0 19 7t9.5 16.5t10.5 9.5h30q11 0 10 -10q-2 -16 -9.5 -30.5t-18.5 -25t-27 -17t-34 -6.5q-5 0 -10 0.5t-9.5 2t-8 2.5t-9 3.5t-7.5 4t-7.5 5t-6.5 4.5t-6.5 5t-6.5 4q-23 19 -37 19
q-5 0 -9.5 -2t-9 -8t-6.5 -14q-1 -10 -10 -10h-31zM573 282q2 14 31 13q25 -1 24 -13q-28 -161 -71 -226.5t-120 -65.5q-52 0 -80 37.5t-28 96.5q0 39 14.5 122.5t35 183.5t22.5 112q20 114 1 165.5t-80.5 51.5t-113.5 -47t-75 -143l-98 -559q-2 -9 -11 -9h-38q-11 0 -9 11
l139 789q1 9 11 9h37q11 0 9 -11l-14 -83q65 99 170 99q86 0 119.5 -70.5t8.5 -205.5q-1 -9 -21 -106.5t-34 -180t-14 -120.5q0 -39 15.5 -62.5t44.5 -23.5q44 0 72.5 52t52.5 184z" />
    <glyph glyph-name="Ograve" unicode="&#xd2;" horiz-adv-x="501" 
d="M345 859q-8 0 -11 8l-40 98q-3 12 8 12h56q8 0 10 -9l18 -98q2 -11 -9 -11h-32zM275 345q10 -2 8 -11l-6 -37q-1 -9 -11 -9q-113 8 -113 168q0 85 22.5 166.5t71.5 141t115 59.5q65 0 95 -46.5t30 -146.5q0 -111 -17.5 -219t-52.5 -205t-97 -157t-142 -60
q-176 0 -176 228q0 135 44 300.5t114 242.5q6 8 14 0l21 -22q6 -8 1 -14q-59 -68 -98 -225.5t-39 -273.5q0 -95 32 -137.5t96 -42.5q62 0 111 59t76.5 150t42 186.5t14.5 181.5q0 145 -79 145q-34 0 -62 -31.5t-45 -79t-26 -98.5t-9 -94q0 -111 65 -119z" />
    <glyph glyph-name="Oacute" unicode="&#xd3;" horiz-adv-x="501" 
d="M360 870q-4 0 -5.5 4.5t0.5 8.5l38 95q2 5 13 5h50q5 0 6 -4t-2 -9l-59 -97q-3 -4 -13 -4zM275 345q10 -2 8 -11l-6 -37q-1 -9 -11 -9q-37 2 -62 22.5t-38 57t-13 88.5q0 49 8 100t25.5 99t41.5 85.5t59 60t75 22.5q43 0 70.5 -20.5t41 -63t13.5 -109.5q0 -87 -10.5 -174
t-34 -172t-58.5 -150t-88 -105t-118 -40q-176 0 -176 228q0 135 44 300.5t114 242.5q6 8 14 0l21 -22q6 -8 1 -14q-30 -35 -56.5 -99.5t-43.5 -136t-27 -141.5t-10 -122q0 -64 15 -104.5t43 -58t70 -17.5q50 0 92 39.5t69.5 101.5t46.5 140t27.5 153t8.5 143q0 50 -9 82.5
t-26 47.5t-44 15q-34 0 -62 -31.5t-45 -79t-26 -98.5t-9 -94q0 -111 65 -119z" />
    <glyph glyph-name="Ocircumflex" unicode="&#xd4;" horiz-adv-x="501" 
d="M442 881q5 -12 -9 -12h-30q-7 0 -11 6l-34 58l-54 -58q-5 -6 -13 -6h-30q-13 0 -5 12l72 99q5 7 13 7h54q8 0 11 -7zM275 345q10 -2 8 -11l-6 -37q-1 -9 -11 -9q-55 4 -84 47t-29 121q0 49 8 100t25.5 99t41.5 85.5t59 60t75 22.5q43 0 70.5 -20.5t41 -63t13.5 -109.5
q0 -87 -10.5 -174t-34 -172t-58.5 -150t-88 -105t-118 -40q-176 0 -176 228q0 135 44 300.5t114 242.5q6 8 14 0l21 -22q6 -8 1 -14q-30 -35 -56.5 -99.5t-43.5 -136t-27 -141.5t-10 -122q0 -64 15 -104.5t43 -58t70 -17.5q50 0 92 39.5t69.5 101.5t46.5 140t27.5 153
t8.5 143q0 50 -9 82.5t-26 47.5t-44 15q-34 0 -62 -31.5t-45 -79t-26 -98.5t-9 -94q0 -111 65 -119z" />
    <glyph glyph-name="Otilde" unicode="&#xd5;" horiz-adv-x="501" 
d="M248 875q-11 0 -9 10q5 36 27.5 58t58.5 22q30 0 68 -29q28 -21 40 -21q11 0 19 7t9.5 16.5t10.5 9.5h30q11 0 10 -10q-4 -33 -29 -56t-60 -23q-5 0 -10 0.5t-9.5 2t-8.5 2.5t-9 3.5t-7 4t-7.5 5t-7 4.5t-6.5 5t-6 4q-23 19 -37 19q-5 0 -9.5 -2t-9 -8t-6.5 -14
q-2 -10 -10 -10h-32zM275 345q10 -2 8 -11l-6 -37q-2 -9 -11 -9q-55 4 -84 47t-29 121q0 49 8 100t25.5 99t41.5 85.5t59 60t75 22.5q43 0 70.5 -20.5t41 -63t13.5 -109.5q0 -87 -10.5 -174t-34 -172t-58.5 -150t-88 -105t-118 -40q-176 0 -176 228q0 135 44 300.5
t114 242.5q6 8 14 0l21 -22q6 -8 1 -14q-40 -46 -72.5 -141t-48.5 -190.5t-16 -167.5q0 -64 15 -104.5t43 -58t70 -17.5q50 0 92 39.5t69.5 101.5t46.5 140t27.5 153t8.5 143q0 75 -19.5 110t-59.5 35q-34 0 -62 -31.5t-45 -79t-26 -98.5t-9 -94q0 -111 65 -119z" />
    <glyph glyph-name="Odieresis" unicode="&#xd6;" horiz-adv-x="501" 
d="M295 874q-20 0 -25 9t-1 35q4 25 12.5 34t28.5 9t25.5 -9.5t1.5 -33.5q-5 -25 -13.5 -34.5t-28.5 -9.5zM438 874q-20 0 -25 9t-1 35q4 25 12.5 34t28.5 9t25.5 -9.5t1.5 -33.5q-5 -25 -13.5 -34.5t-28.5 -9.5zM275 345q10 -2 8 -11l-6 -37q-1 -9 -11 -9q-113 8 -113 168
q0 85 22.5 166.5t71.5 141t115 59.5q65 0 95 -46.5t30 -146.5q0 -111 -17.5 -219t-52.5 -205t-97 -157t-142 -60q-176 0 -176 228q0 135 44 300.5t114 242.5q6 8 14 0l21 -22q6 -8 1 -14q-59 -68 -98 -225.5t-39 -273.5q0 -95 32 -137.5t96 -42.5q62 0 111 59t76.5 150
t42 186.5t14.5 181.5q0 145 -79 145q-34 0 -62 -31.5t-45 -79t-26 -98.5t-9 -94q0 -111 65 -119z" />
    <glyph glyph-name="multiply" unicode="&#xd7;" horiz-adv-x="387" 
d="M359 454q6 -8 -2 -14l-109 -94l75 -90q6 -8 -2 -14l-34 -29q-8 -7 -14 1l-75 90l-108 -91q-8 -7 -14 1l-22 26q-6 8 1 14l109 92l-76 92q-6 8 1 14l35 29q7 7 14 -1l75 -92l110 93q7 7 14 -1z" />
    <glyph glyph-name="Oslash" unicode="&#xd8;" horiz-adv-x="516" 
d="M515 830q12 0 19.5 -4t3.5 -10l-59 -96q8 -37 8 -90q0 -87 -10.5 -174t-34 -172t-58.5 -150t-88 -105t-118 -40q-72 0 -114 37l-41 -68q-8 -14 -38 -14q-8 0 -14.5 1.5t-9 5t-0.5 7.5l68 114q-27 54 -27 145q0 135 44 300.5t114 242.5q6 8 14 0l21 -22q6 -8 1 -14
q-30 -35 -56.5 -99.5t-43.5 -136t-27 -141.5t-10 -122q0 -64 15 -104.5t43 -58t70 -17.5q50 0 92 39.5t69.5 101.5t46.5 140t27.5 153t8.5 143q0 50 -9 82.5t-26 47.5t-44 15q-34 0 -62 -31.5t-45 -79t-26 -98.5t-9 -94q0 -111 65 -119q10 -2 8 -11l-6 -37q-1 -9 -11 -9
q-55 4 -84 47t-29 121q0 49 8 100t25.5 99t41.5 85.5t59 60t75 22.5q61 0 92 -42l22 35q9 14 39 14z" />
    <glyph glyph-name="Ugrave" unicode="&#xd9;" horiz-adv-x="556" 
d="M260 867l-40 98q-4 12 8 12h56q8 0 10 -9l18 -98q1 -11 -9 -11h-32q-9 0 -11 8zM581 282q2 14 32 13q26 0 24 -13q-29 -161 -73 -226.5t-126 -65.5q-30 0 -53 9.5t-38.5 27.5t-23.5 44.5t-8 61.5v14q-79 -157 -196 -157q-80 0 -112.5 68.5t-10.5 191.5l96 546q1 8 9 8
l36 1q6 0 9 -4t2 -9l-97 -551q-35 -195 76 -195q49 0 96.5 56t81.5 139.5t55 184.5q39 226 65 375q2 9 11 9h37q11 0 9 -11q-28 -160 -64 -366q-31 -177 -37.5 -218.5t-6.5 -65.5q0 -103 74 -103q50 0 79.5 51.5t53.5 184.5z" />
    <glyph glyph-name="Uacute" unicode="&#xda;" horiz-adv-x="556" 
d="M286 870q-5 0 -6 4.5t1 8.5l38 95q2 5 13 5h50q5 0 6 -4t-2 -9l-59 -97q-3 -4 -13 -4zM581 282q2 14 32 13q26 0 24 -13q-29 -161 -73 -226.5t-126 -65.5q-30 0 -53 9.5t-38.5 27.5t-23.5 44.5t-8 61.5v14q-79 -157 -196 -157q-80 0 -112.5 68.5t-10.5 191.5l96 546
q1 8 9 8l36 1q6 0 9 -4t2 -9l-97 -551q-35 -195 76 -195q49 0 96.5 56t81.5 139.5t55 183.5q39 227 65 376q2 9 11 9h37q11 0 9 -11q-28 -160 -64 -366q-31 -177 -37.5 -218.5t-6.5 -65.5q0 -50 19 -76.5t55 -26.5q50 0 79.5 51.5t53.5 184.5z" />
    <glyph glyph-name="Ucircumflex" unicode="&#xdb;" horiz-adv-x="556" 
d="M187 869q-14 0 -5 12l71 99q5 7 14 7h54q8 0 10 -7l37 -99q4 -12 -9 -12h-30q-8 0 -11 6l-34 58l-54 -58q-6 -6 -13 -6h-30zM581 282q2 14 32 13q26 0 24 -13q-29 -161 -73 -226.5t-126 -65.5q-61 0 -92 36.5t-31 106.5v14q-79 -157 -196 -157q-80 0 -112.5 68.5
t-10.5 191.5l96 546q1 8 9 8l36 1q6 0 9 -4t2 -9l-97 -551q-35 -195 76 -195q49 0 96.5 56t81.5 139.5t55 184.5q39 226 65 375q2 9 11 9h37q11 0 9 -11q-104 -600 -106 -619q-2 -16 -2 -31q0 -50 19 -76.5t55 -26.5q50 0 79.5 51.5t53.5 184.5z" />
    <glyph glyph-name="Udieresis" unicode="&#xdc;" horiz-adv-x="556" 
d="M221 874q-20 0 -25 9t-1 35q3 25 12 34t28.5 9t25.5 -9.5t2 -33.5q-3 -17 -8 -26t-13 -13.5t-21 -4.5zM364 874q-20 0 -25 9t-1 35q3 25 12 34t28.5 9t25.5 -9.5t2 -33.5q-3 -17 -8 -26t-13 -13.5t-21 -4.5zM581 282q2 14 32 13q26 0 24 -13q-29 -161 -73 -226.5
t-126 -65.5q-30 0 -53 9.5t-38.5 27.5t-23.5 44.5t-8 61.5v14q-79 -157 -196 -157q-80 0 -112.5 68.5t-10.5 191.5l96 546q1 8 9 8l36 1q6 0 9 -4t2 -9l-97 -551q-35 -195 76 -195q49 0 96.5 56t81.5 139.5t55 184.5q39 226 65 375q2 9 11 9h37q11 0 9 -11
q-28 -160 -64 -366q-31 -177 -37.5 -218.5t-6.5 -65.5q0 -103 74 -103q50 0 79.5 51.5t53.5 184.5z" />
    <glyph glyph-name="Yacute" unicode="&#xdd;" horiz-adv-x="492" 
d="M355 870q-4 0 -5.5 4.5t0.5 8.5l38 95q2 5 13 5h50q5 0 6 -4t-2 -9l-59 -97q-2 -4 -13 -4zM521 804q11 0 9 -11l-74 -424q-10 -61 -22 -109t-33 -100.5t-47 -87t-65 -57.5t-87 -23q-36 0 -64 11t-40 22t-25 27q-12 15 -6 20l33 26q8 6 14 -2q34 -48 94 -48q74 0 118 75
t74 246l5 31q-77 -144 -189 -144q-78 0 -113 61t-19 154l59 331q2 8 9 8l36 1q6 0 9 -4t2 -9l-59 -337q-12 -66 9 -107.5t75 -41.5q50 0 97.5 57.5t81.5 143t55 187.5l16 95q2 9 11 9h36z" />
    <glyph glyph-name="Thorn" unicode="&#xde;" horiz-adv-x="609" 
d="M403 735q120 0 182.5 -55.5t62.5 -163.5q0 -88 -30 -166.5t-90 -129.5t-136 -51q-20 0 -41 4q-11 2 -7 12l12 37q3 9 12 8q18 -3 29 -3q46 0 84 24.5t61.5 64.5t36 89.5t12.5 101.5q0 172 -199 172h-7q-13 -53 -59 -310q-8 -45 -15 -79.5t-18.5 -76t-23.5 -72
t-29.5 -60.5t-37.5 -49t-46.5 -31t-57.5 -12q-26 0 -46.5 6t-34 17t-20 18.5t-13.5 19.5q-6 8 2 14l32 24q8 6 14 -2q6 -10 11 -15.5t14 -12.5t21.5 -10t28.5 -3q54 0 93.5 78t69.5 246q4 21 16 94.5t21 122t19 87.5q-157 -29 -196 -203q-11 -66 7.5 -117.5t63.5 -57.5
q10 -2 8 -11l-6 -37q-2 -10 -11 -9q-74 13 -106 78t-17 160q22 109 93 175t182 80q9 26 19 42q29 45 71 45q9 0 9 -10l1 -31q0 -7 -9 -9q-19 -6 -32 -33z" />
    <glyph glyph-name="germandbls" unicode="&#xdf;" horiz-adv-x="402" 
d="M-27 -16l115 655q17 92 65 142t121 50q58 0 89 -28t31 -81q0 -44 -22 -86t-48.5 -68.5t-48.5 -57t-22 -53.5q0 -16 16.5 -37.5t35.5 -42t35.5 -59t16.5 -84.5q0 -19 -5 -49q-17 -97 -66 -150.5t-122 -53.5q-23 0 -60 10q-7 4 -5.5 16t10 24t15.5 10q31 -7 49 -7
q96 0 123 150q3 18 3 35q0 52 -16 91t-34.5 57t-34.5 41t-16 48q0 27 35 71.5t70 94.5t35 92q0 62 -72 62q-97 0 -123 -141l-114 -651q-2 -9 -16.5 -12.5t-28 0t-11.5 12.5z" />
    <glyph glyph-name="agrave" unicode="&#xe0;" horiz-adv-x="469" 
d="M203 612l-40 98q-3 12 8 12h56q9 0 10 -9l18 -98q2 -11 -9 -11h-32q-8 0 -11 8zM494 282q2 14 32 13q25 -1 24 -13q-28 -161 -71.5 -226.5t-119.5 -65.5q-26 0 -47 10t-34 27.5t-20 41.5q-42 -79 -129 -79q-38 0 -63.5 15t-38.5 39.5t-16 63t0.5 79.5t13.5 95
q26 145 72 209.5t126 64.5q30 0 55 -15.5t36 -42.5l8 43q2 9 11 9h37q11 0 9 -11l-67 -377q-3 -17 -3 -33q0 -37 16 -60t44 -23q45 0 73.5 52t51.5 184zM139 46q53 0 83.5 51t52.5 180q8 43 12 73t3.5 61t-7.5 49.5t-23 30.5t-41 12q-51 0 -83.5 -49.5t-54.5 -171.5
q-7 -39 -10.5 -65.5t-5 -56t2 -48t11 -35t23 -24t37.5 -7.5z" />
    <glyph glyph-name="aacute" unicode="&#xe1;" horiz-adv-x="469" 
d="M229 615q-4 0 -5.5 4.5t0.5 8.5l38 95q2 5 13 5h50q5 0 6 -4t-2 -9l-59 -97q-3 -4 -13 -4zM494 282q2 14 32 13q25 -1 24 -13q-28 -161 -71.5 -226.5t-119.5 -65.5q-26 0 -47 10t-34 27.5t-20 41.5q-42 -79 -129 -79q-38 0 -63.5 15t-38.5 39.5t-16 63t0.5 79.5t13.5 95
q26 145 72 209.5t126 64.5q30 0 55 -15.5t36 -42.5l8 43q2 9 11 9h37q11 0 9 -11l-67 -377q-3 -17 -3 -33q0 -37 16 -60t44 -23q45 0 73.5 52t51.5 184zM139 46q53 0 83.5 51t52.5 180q8 43 12 73t3.5 61t-7.5 49.5t-23 30.5t-41 12q-51 0 -83.5 -49.5t-54.5 -171.5
q-7 -39 -10.5 -65.5t-5 -56t2 -48t11 -35t23 -24t37.5 -7.5z" />
    <glyph glyph-name="acircumflex" unicode="&#xe2;" horiz-adv-x="469" 
d="M130 614q-13 0 -5 12l72 99q5 7 13 7h54q8 0 11 -7l36 -99q5 -12 -9 -12h-30q-7 0 -11 6l-34 58l-54 -58q-5 -6 -13 -6h-30zM494 282q2 14 32 13q25 -1 24 -13q-28 -161 -71.5 -226.5t-119.5 -65.5q-26 0 -47 10t-34 27.5t-20 41.5q-42 -79 -129 -79q-38 0 -63.5 15
t-38.5 39.5t-16 63t0.5 79.5t13.5 95q26 145 72 209.5t126 64.5q30 0 55 -15.5t36 -42.5l8 43q2 9 11 9h37q11 0 9 -11l-67 -377q-3 -17 -3 -33q0 -37 16 -60t44 -23q45 0 73.5 52t51.5 184zM139 46q53 0 83.5 51t52.5 180q8 43 12 73t3.5 61t-7.5 49.5t-23 30.5t-41 12
q-51 0 -83.5 -49.5t-54.5 -171.5q-7 -39 -10.5 -65.5t-5 -56t2 -48t11 -35t23 -24t37.5 -7.5z" />
    <glyph glyph-name="atilde" unicode="&#xe3;" horiz-adv-x="469" 
d="M117 620q-11 0 -9 10q5 36 27.5 58t58.5 22q30 0 68 -29q28 -21 40 -21q11 0 19 7t9.5 16.5t10.5 9.5h30q11 0 10 -10q-4 -33 -29 -56t-60 -23q-5 0 -10 0.5t-9.5 2t-8.5 2.5t-9 3.5t-7 4t-7.5 5t-7 4.5t-6.5 5t-6 4q-23 19 -37 19q-8 0 -15.5 -6t-9.5 -18
q-2 -10 -10 -10h-32zM494 282q2 14 32 13q25 -1 24 -13q-19 -108 -44.5 -171.5t-60.5 -92t-86 -28.5q-39 0 -65 21.5t-36 57.5q-42 -79 -129 -79q-38 0 -63.5 15t-38.5 39.5t-16 63t0.5 79.5t13.5 95q26 145 72 209.5t126 64.5q30 0 55 -15.5t36 -42.5l8 43q2 9 11 9h37
q11 0 9 -11l-67 -377q-3 -17 -3 -33q0 -37 15.5 -60t44.5 -23q45 0 73.5 52t51.5 184zM139 46q53 0 83.5 51t52.5 180q8 43 12 73t3.5 61t-7.5 49.5t-23 30.5t-41 12q-51 0 -83.5 -49.5t-54.5 -171.5q-7 -39 -10.5 -65.5t-5 -56t2 -48t11 -35t23 -24t37.5 -7.5z" />
    <glyph glyph-name="adieresis" unicode="&#xe4;" horiz-adv-x="469" 
d="M164 619q-20 0 -25 9t-1 35q4 25 12.5 34t28.5 9t25.5 -9.5t1.5 -33.5q-5 -25 -13.5 -34.5t-28.5 -9.5zM307 619q-20 0 -25 9t-1 35q4 25 12.5 34t28.5 9t25.5 -9.5t1.5 -33.5q-5 -25 -13.5 -34.5t-28.5 -9.5zM494 282q2 14 32 13q25 -1 24 -13q-28 -161 -71.5 -226.5
t-119.5 -65.5q-26 0 -47 10t-34 27.5t-20 41.5q-42 -79 -129 -79q-38 0 -63.5 15t-38.5 39.5t-16 63t0.5 79.5t13.5 95q26 145 72 209.5t126 64.5q30 0 55 -15.5t36 -42.5l8 43q2 9 11 9h37q11 0 9 -11l-67 -377q-3 -17 -3 -33q0 -37 16 -60t44 -23q45 0 73.5 52t51.5 184z
M139 46q53 0 83.5 51t52.5 180q8 43 12 73t3.5 61t-7.5 49.5t-23 30.5t-41 12q-51 0 -83.5 -49.5t-54.5 -171.5q-7 -39 -10.5 -65.5t-5 -56t2 -48t11 -35t23 -24t37.5 -7.5z" />
    <glyph glyph-name="aring" unicode="&#xe5;" horiz-adv-x="469" 
d="M233 611q-40 0 -58 22t-11 60t31.5 60.5t61.5 22.5q40 0 58 -21.5t11 -61.5q-7 -38 -32 -60t-61 -22zM220 693q-3 -15 2 -20.5t21 -5.5q22 0 27 26q3 16 -1.5 21.5t-20.5 5.5q-24 0 -28 -27zM494 282q2 14 32 13q25 -1 24 -13q-28 -161 -71.5 -226.5t-119.5 -65.5
q-26 0 -47 10t-34 27.5t-20 41.5q-42 -79 -129 -79q-38 0 -63.5 15t-38.5 39.5t-16 63t0.5 79.5t13.5 95q26 145 72 209.5t126 64.5q30 0 55 -15.5t36 -42.5l8 43q2 9 11 9h37q11 0 9 -11l-67 -377q-3 -17 -3 -33q0 -37 16 -60t44 -23q45 0 73.5 52t51.5 184zM139 46
q53 0 83.5 51t52.5 180q8 43 12 73t3.5 61t-7.5 49.5t-23 30.5t-41 12q-51 0 -83.5 -49.5t-54.5 -171.5q-7 -39 -10.5 -65.5t-5 -56t2 -48t11 -35t23 -24t37.5 -7.5z" />
    <glyph glyph-name="ae" unicode="&#xe6;" horiz-adv-x="578" 
d="M635 303q11 0 18.5 -5.5t5.5 -15.5q-50 -291 -253 -291q-112 0 -144 93q-54 -93 -140 -93q-59 0 -86 35t-27 110q0 53 14 134q27 153 74.5 221t126.5 68q49 0 80 -31l2 10q2 11 11.5 16.5t21.5 5.5t19 -5.5t5 -16.5l-4 -23q43 44 100 44q34 0 57.5 -14t36 -40.5
t12.5 -62.5q0 -25 -6 -55t-17 -52.5t-29 -37.5t-36.5 -24.5t-48 -15t-53.5 -8t-63 -4.5l-5 -25q-2 -20 -2 -39q0 -134 112 -134q145 0 186 235q5 21 32 21zM135 47q31 0 57.5 28t38.5 60t13 54h1l10 59q1 8 3 17q2 10 4 19l20 118q1 6 1 18q0 36 -18 60t-46 24
q-55 0 -86.5 -53t-53.5 -181q-13 -81 -13 -122q0 -53 16.5 -77t52.5 -24zM449 503q-83 0 -125 -190l-2 -12q25 1 36 2t31 2.5t28 3.5t22 5t20 7.5t15 10.5t13 14t8.5 18.5t7.5 23.5q5 25 5 42q0 23 -7 39.5t-20 25t-32 8.5z" />
    <glyph glyph-name="ccedilla" unicode="&#xe7;" horiz-adv-x="352" 
d="M410 294q10 0 17 -3t6 -9q-25 -140 -91.5 -216t-166.5 -76l-13 -34q42 -1 58 -21.5t10 -55.5q-7 -41 -39.5 -65t-77.5 -24q-25 0 -49 10q-9 3 -4 13l20 34q5 7 14 4q12 -5 29 -5q45 0 51 33q3 15 -9.5 23.5t-44.5 5.5q-15 -1 -20 6t0 21l22 61q-108 28 -108 178
q0 49 10 103q51 281 199 281q47 0 72.5 -28t25.5 -76q0 -30 -11 -67q-3 -9 -12 -8l-35 4q-11 1 -8 12q8 26 8 46q0 61 -51 61q-91 0 -132 -225q-9 -51 -9 -91q0 -65 29 -102.5t86 -37.5q70 0 119.5 61t71.5 175q3 12 33 12z" />
    <glyph glyph-name="egrave" unicode="&#xe8;" horiz-adv-x="372" 
d="M210 599q-8 0 -11 8l-40 98q-3 12 8 12h56q9 0 10 -9l18 -98q2 -11 -9 -11h-32zM190 -10q-86 0 -131 50t-45 138q0 42 9 93q50 284 199 284q51 0 79 -30.5t28 -83.5q0 -27 -5 -48q-8 -36 -24 -61.5t-35 -40t-52.5 -23.5t-61 -12t-75.5 -6q-5 -37 -5 -61
q0 -66 33.5 -104.5t96.5 -38.5q155 0 196 236q3 14 32 14q11 0 18 -3.5t6 -10.5q-26 -146 -90 -219t-173 -73zM87 307q44 2 62.5 3.5t44.5 6.5t37 14t21.5 24t15.5 39q4 16 4 34q0 33 -16 52t-44 19q-86 0 -125 -192z" />
    <glyph glyph-name="eacute" unicode="&#xe9;" horiz-adv-x="372" 
d="M225 610q-4 0 -5.5 4.5t0.5 8.5l38 95q2 5 13 5h50q5 0 6 -4t-2 -9l-59 -97q-3 -4 -13 -4zM190 -10q-58 0 -97.5 23t-59 65t-19.5 100q0 42 9 93q24 138 74.5 211t124.5 73q51 0 79 -30.5t28 -83.5q0 -27 -5 -48q-6 -30 -17.5 -53t-29.5 -37.5t-36 -24t-48 -15.5
t-54 -8.5t-63 -4.5q-5 -37 -5 -61q0 -66 33.5 -104.5t96.5 -38.5q155 0 196 236q3 14 32 14q11 0 18 -3.5t6 -10.5q-26 -146 -90 -219t-173 -73zM87 307q25 1 36 2t30.5 2.5t28 3t22 5t19.5 7.5t15 10.5t13.5 14.5t9 18.5t7.5 23.5q4 16 4 34q0 33 -16 52t-44 19
q-86 0 -125 -192z" />
    <glyph glyph-name="ecircumflex" unicode="&#xea;" horiz-adv-x="372" 
d="M307 621q5 -12 -9 -12h-30q-7 0 -11 6l-34 58l-54 -58q-5 -6 -13 -6h-30q-13 0 -5 12l72 99q5 7 13 7h54q8 0 11 -7zM190 -10q-86 0 -131 50t-45 138q0 42 9 93q24 138 74.5 211t124.5 73q51 0 79 -30.5t28 -83.5q0 -27 -5 -48q-6 -30 -17.5 -53t-29.5 -37.5t-36 -24
t-48 -15.5t-54 -8.5t-63 -4.5q-5 -37 -5 -61q0 -66 33.5 -104.5t96.5 -38.5q155 0 196 236q3 14 32 14q11 0 18 -3.5t6 -10.5q-26 -146 -90 -219t-173 -73zM87 307q25 1 36 2t30.5 2.5t28 3t22 5t19.5 7.5t15 10.5t13.5 14.5t9 18.5t7.5 23.5q4 16 4 34q0 33 -16 52t-44 19
q-86 0 -125 -192z" />
    <glyph glyph-name="edieresis" unicode="&#xeb;" horiz-adv-x="372" 
d="M160 614q-20 0 -25 9t-1 35q4 25 12.5 34t28.5 9t25.5 -9.5t1.5 -33.5q-5 -25 -13.5 -34.5t-28.5 -9.5zM303 614q-20 0 -25 9t-1 35q4 25 12.5 34t28.5 9t25.5 -9.5t1.5 -33.5q-5 -25 -13.5 -34.5t-28.5 -9.5zM190 -10q-86 0 -131 50t-45 138q0 42 9 93q50 284 199 284
q51 0 79 -30.5t28 -83.5q0 -27 -5 -48q-8 -36 -24 -61.5t-35 -40t-52.5 -23.5t-61 -12t-75.5 -6q-5 -37 -5 -61q0 -66 33.5 -104.5t96.5 -38.5q155 0 196 236q3 14 32 14q11 0 18 -3.5t6 -10.5q-26 -146 -90 -219t-173 -73zM87 307q44 2 62.5 3.5t44.5 6.5t37 14t21.5 24
t15.5 39q4 16 4 34q0 33 -16 52t-44 19q-86 0 -125 -192z" />
    <glyph glyph-name="igrave" unicode="&#xec;" horiz-adv-x="218" 
d="M88 599q-8 0 -11 8l-40 98q-3 12 8 12h56q9 0 10 -9l18 -98q2 -11 -9 -11h-32zM243 282q3 14 30 14q11 0 19 -4t7 -10q-27 -151 -72 -221.5t-119 -70.5q-52 0 -79.5 32.5t-27.5 93.5q0 27 6 60l61 365q2 9 11 9h37q11 0 9 -11l-61 -363q-5 -27 -5 -45q0 -40 15.5 -62.5
t43.5 -22.5q43 0 72.5 55.5t52.5 180.5z" />
    <glyph glyph-name="iacute" unicode="&#xed;" horiz-adv-x="218" 
d="M103 610q-4 0 -5.5 4.5t0.5 8.5l38 95q2 5 13 5h50q5 0 6 -4t-2 -9l-59 -97q-3 -4 -13 -4zM243 282q3 14 30 14q11 0 19 -4t7 -10q-27 -151 -72 -221.5t-119 -70.5q-52 0 -79.5 32.5t-27.5 93.5q0 27 6 60l61 365q2 9 11 9h37q11 0 9 -11l-61 -363q-5 -27 -5 -45
q0 -40 15.5 -62.5t43.5 -22.5q43 0 72.5 55.5t52.5 180.5z" />
    <glyph glyph-name="icircumflex" unicode="&#xee;" horiz-adv-x="218" 
d="M185 621q5 -12 -9 -12h-30q-7 0 -11 6l-34 58l-54 -58q-5 -6 -13 -6h-30q-13 0 -5 12l72 99q5 7 13 7h54q8 0 11 -7zM243 282q3 14 30 14q7 0 13.5 -1.5t10 -5t2.5 -7.5q-27 -151 -72 -221.5t-119 -70.5q-52 0 -79.5 32.5t-27.5 93.5q0 27 6 60l61 365q2 9 11 9h37
q11 0 9 -11l-61 -363q-5 -27 -5 -45q0 -40 15.5 -62.5t43.5 -22.5q43 0 72.5 55.5t52.5 180.5z" />
    <glyph glyph-name="idieresis" unicode="&#xef;" horiz-adv-x="218" 
d="M38 614q-20 0 -25 9t-1 35q4 25 12.5 34t28.5 9t25.5 -9.5t1.5 -33.5q-5 -25 -13.5 -34.5t-28.5 -9.5zM181 614q-20 0 -25 9t-1 35q4 25 12.5 34t28.5 9t25.5 -9.5t1.5 -33.5q-5 -25 -13.5 -34.5t-28.5 -9.5zM243 282q3 14 30 14q11 0 19 -4t7 -10q-27 -151 -72 -221.5
t-119 -70.5q-52 0 -79.5 32.5t-27.5 93.5q0 27 6 60l61 365q2 9 11 9h37q11 0 9 -11l-61 -363q-5 -27 -5 -45q0 -40 15.5 -62.5t43.5 -22.5q43 0 72.5 55.5t52.5 180.5z" />
    <glyph glyph-name="eth" unicode="&#xf0;" horiz-adv-x="367" 
d="M344 763q6 2 9 -8q4 -23 -9 -37l-7 -5l-52 -13q52 -145 52 -277q0 -66 -16 -158q-24 -140 -72.5 -208t-127.5 -68q-111 0 -111 153q0 52 12 123q26 144 72.5 214t116.5 70q43 0 63 -26q-22 93 -46 162l-81 -21q-8 -2 -10 9q-3 22 9 36q3 4 7 5l59 15q-15 37 -32 72
q-5 11 20.5 23.5t30.5 1.5q20 -42 37 -83zM265 265q14 81 14 127q0 53 -17 77t-53 24q-48 0 -78.5 -53t-52.5 -175q-12 -72 -12 -118q0 -102 64 -102q51 0 83 51.5t52 168.5z" />
    <glyph glyph-name="ntilde" unicode="&#xf1;" horiz-adv-x="456" 
d="M131 620q-11 0 -9 10q4 36 27 58t59 22q30 0 68 -29q28 -21 40 -21q10 0 18.5 7t10 16.5t10.5 9.5h30q11 0 9 -10q-2 -21 -13.5 -39t-31.5 -29t-43 -11q-5 0 -9.5 0.5t-8 1.5t-8 2.5l-7.5 2.5t-7.5 3.5t-6.5 4t-6.5 4.5l-6 4l-6 4t-5.5 4q-23 19 -37 19q-8 0 -15.5 -6
t-9.5 -18q-2 -10 -11 -10h-31zM481 282q2 10 16.5 14.5t28 0t11.5 -14.5q-27 -151 -72 -221.5t-119 -70.5q-103 0 -103 130q0 43 8 86l35 201q3 15 3 30q0 68 -60 68q-42 0 -81 -40t-51 -92l-63 -364q-2 -9 -11 -9h-36q-11 0 -9 11l92 530q1 9 11 9h36q11 0 9 -11l-6 -33
q54 55 118 55q51 0 79.5 -30.5t28.5 -83.5q0 -21 -4 -40l-35 -201q-7 -39 -7 -72q0 -88 56 -88q44 0 73.5 56t51.5 180z" />
    <glyph glyph-name="ograve" unicode="&#xf2;" horiz-adv-x="391" 
d="M219 604q-8 0 -11 8l-40 98q-3 12 8 12h56q8 0 10 -9l18 -98q2 -11 -9 -11h-32zM129 -10q-62 0 -90.5 36t-28.5 114q0 58 15 142q26 146 73 211.5t131 65.5q60 0 88 -35.5t28 -111.5q0 -53 -14 -135q-27 -151 -73.5 -219t-128.5 -68zM139 46q53 0 83.5 51t52.5 180
q15 81 15 130q0 52 -17 74t-54 22q-56 0 -86 -48t-52 -173q-15 -87 -15 -138q0 -53 17 -75.5t56 -22.5z" />
    <glyph glyph-name="oacute" unicode="&#xf3;" horiz-adv-x="391" 
d="M234 615q-4 0 -5.5 4.5t0.5 8.5l38 95q2 5 13 5h50q5 0 6 -4t-2 -9l-59 -97q-3 -4 -13 -4zM129 -10q-62 0 -90.5 36t-28.5 114q0 58 15 142q17 98 43 158t65 89.5t96 29.5q60 0 88 -35.5t28 -111.5q0 -53 -14 -135q-27 -151 -73.5 -219t-128.5 -68zM139 46q53 0 83.5 51
t52.5 180q15 81 15 130q0 52 -17 74t-54 22q-56 0 -86 -48t-52 -173q-15 -87 -15 -138q0 -53 17 -75.5t56 -22.5z" />
    <glyph glyph-name="ocircumflex" unicode="&#xf4;" horiz-adv-x="391" 
d="M316 626q5 -12 -9 -12h-30q-7 0 -11 6l-34 58l-54 -58q-5 -6 -13 -6h-30q-13 0 -5 12l72 99q5 7 13 7h54q8 0 11 -7zM129 -10q-62 0 -90.5 36t-28.5 114q0 58 15 142q17 98 43 158t65.5 89.5t95.5 29.5q60 0 88 -35.5t28 -111.5q0 -53 -14 -135q-27 -151 -73.5 -219
t-128.5 -68zM139 46q53 0 83.5 51t52.5 180q15 81 15 130q0 52 -17 74t-54 22q-56 0 -86 -48t-52 -173q-15 -87 -15 -138q0 -53 17 -75.5t56 -22.5z" />
    <glyph glyph-name="otilde" unicode="&#xf5;" horiz-adv-x="391" 
d="M122 620q-11 0 -9 10q5 36 27.5 58t58.5 22q30 0 68 -29q28 -21 40 -21q11 0 19 7t9.5 16.5t10.5 9.5h30q11 0 10 -10q-4 -33 -29 -56t-60 -23q-5 0 -10 0.5t-9.5 2t-8.5 2.5t-9 3.5t-7 4t-7.5 5t-7 4.5t-6.5 5t-6 4q-23 19 -37 19q-8 0 -15.5 -6t-9.5 -18
q-2 -10 -10 -10h-32zM129 -10q-62 0 -90.5 36t-28.5 114q0 58 15 142q17 98 43 158t65 89.5t96 29.5q60 0 88 -35.5t28 -111.5q0 -53 -14 -135q-27 -151 -73.5 -219t-128.5 -68zM139 46q53 0 83.5 51t52.5 180q15 81 15 130q0 35 -8 56t-23.5 30.5t-39.5 9.5q-56 0 -86 -48
t-52 -173q-15 -87 -15 -138q0 -53 17 -75.5t56 -22.5z" />
    <glyph glyph-name="odieresis" unicode="&#xf6;" horiz-adv-x="391" 
d="M169 619q-20 0 -25 9t-1 35q4 25 12.5 34t28.5 9t25.5 -9.5t1.5 -33.5q-5 -25 -13.5 -34.5t-28.5 -9.5zM312 619q-20 0 -25 9t-1 35q4 25 12.5 34t28.5 9t25.5 -9.5t1.5 -33.5q-5 -25 -13.5 -34.5t-28.5 -9.5zM129 -10q-62 0 -90.5 36t-28.5 114q0 58 15 142
q26 146 73 211.5t131 65.5q60 0 88 -35.5t28 -111.5q0 -53 -14 -135q-27 -151 -73.5 -219t-128.5 -68zM139 46q53 0 83.5 51t52.5 180q15 81 15 130q0 52 -17 74t-54 22q-56 0 -86 -48t-52 -173q-15 -87 -15 -138q0 -53 17 -75.5t56 -22.5z" />
    <glyph glyph-name="divide" unicode="&#xf7;" horiz-adv-x="435" 
d="M248 435q-13 0 -20 3.5t-9 12.5t1 23q4 23 13 31.5t29 8.5t26 -8.5t2 -31.5q-4 -22 -13 -30.5t-29 -8.5zM76 318q-11 0 -9 11l7 38q1 9 10 9h299q11 0 9 -11l-6 -38q-2 -9 -11 -9h-299zM203 183q-19 0 -25.5 8.5t-2.5 30.5q4 23 13 31.5t29 8.5t26 -8.5t2 -31.5
q-4 -22 -13 -30.5t-29 -8.5z" />
    <glyph glyph-name="oslash" unicode="&#xf8;" horiz-adv-x="391" 
d="M424 605q6 0 8 -3.5t-1 -8.5l-88 -146q2 -16 2 -35q0 -53 -14 -135q-27 -151 -73.5 -219t-128.5 -68q-31 0 -53 9l-43 -72q-4 -7 -12 -7h-39q-6 0 -8 3.5t1 8.5l59 100q-24 36 -24 108q0 58 15 142q17 98 43 158t65 89.5t96 29.5q66 0 94 -44l50 83q4 7 12 7h39zM275 277
q15 81 15 130q0 35 -8 56t-23.5 30.5t-39.5 9.5q-56 0 -86 -48t-52 -173q-15 -87 -15 -138q0 -53 17 -75.5t56 -22.5q53 0 83.5 51t52.5 180z" />
    <glyph glyph-name="ugrave" unicode="&#xf9;" horiz-adv-x="457" 
d="M195 607l-40 98q-4 12 8 12h56q8 0 10 -9l18 -98q1 -11 -9 -11h-32q-8 0 -11 8zM512 296q7 0 13.5 -1.5t10 -5t2.5 -7.5q-27 -152 -71.5 -221.5t-119.5 -69.5q-80 0 -100 76q-57 -77 -142 -77q-51 0 -79.5 30.5t-28.5 83.5q0 21 4 40l69 397q2 9 11 9h36q11 0 9 -11
l-69 -395q-3 -15 -3 -29q0 -69 61 -69q44 0 80.5 36.5t49.5 94.5l2 10l62 354q1 9 11 9h36q11 0 9 -11l-62 -352q-5 -32 -5 -51q0 -43 15 -66t44 -23q44 0 73.5 56t51.5 179q3 14 30 14z" />
    <glyph glyph-name="uacute" unicode="&#xfa;" horiz-adv-x="457" 
d="M221 610q-4 0 -5.5 4.5t0.5 8.5l38 95q2 5 13 5h50q5 0 6 -4t-2 -9l-59 -97q-3 -4 -13 -4zM512 296q7 0 13.5 -1.5t10 -5t2.5 -7.5q-27 -152 -71.5 -221.5t-119.5 -69.5q-80 0 -100 76q-57 -77 -142 -77q-51 0 -79.5 30.5t-28.5 83.5q0 21 4 40l69 397q2 9 11 9h36
q11 0 9 -11l-69 -395q-3 -15 -3 -29q0 -69 61 -69q44 0 80.5 36.5t49.5 94.5l2 10l62 354q1 9 11 9h36q11 0 9 -11l-62 -352q-5 -32 -5 -51q0 -43 15 -66t44 -23q44 0 73.5 56t51.5 179q3 14 30 14z" />
    <glyph glyph-name="ucircumflex" unicode="&#xfb;" horiz-adv-x="457" 
d="M122 609q-14 0 -5 12l72 99q5 7 13 7h54q8 0 11 -7l36 -99q5 -12 -9 -12h-30q-7 0 -11 6l-34 58l-54 -58q-6 -6 -13 -6h-30zM512 296q7 0 13.5 -1.5t10 -5t2.5 -7.5q-27 -152 -71.5 -221.5t-119.5 -69.5q-80 0 -100 76q-57 -77 -142 -77q-51 0 -79.5 30.5t-28.5 83.5
q0 21 4 40l69 397q2 9 11 9h36q11 0 9 -11l-69 -395q-3 -15 -3 -29q0 -69 61 -69q44 0 80.5 36.5t49.5 94.5l2 10l62 354q1 9 11 9h36q11 0 9 -11l-62 -352q-5 -32 -5 -51q0 -43 15 -66t44 -23q44 0 73.5 56t51.5 179q3 14 30 14z" />
    <glyph glyph-name="udieresis" unicode="&#xfc;" horiz-adv-x="457" 
d="M156 614q-20 0 -25 9t-1 35q4 25 12.5 34t28.5 9t25.5 -9.5t1.5 -33.5q-5 -25 -13.5 -34.5t-28.5 -9.5zM299 614q-20 0 -25 9t-1 35q4 25 12.5 34t28.5 9t25.5 -9.5t1.5 -33.5q-5 -25 -13.5 -34.5t-28.5 -9.5zM512 296q7 0 13.5 -1.5t10 -5t2.5 -7.5
q-27 -152 -71.5 -221.5t-119.5 -69.5q-80 0 -100 76q-57 -77 -142 -77q-51 0 -79.5 30.5t-28.5 83.5q0 21 4 40l69 397q2 9 11 9h36q11 0 9 -11l-69 -395q-3 -15 -3 -29q0 -69 61 -69q44 0 80.5 36.5t49.5 94.5l2 10l62 354q1 9 11 9h36q11 0 9 -11l-62 -352q-5 -32 -5 -51
q0 -43 15 -66t44 -23q44 0 73.5 56t51.5 179q3 14 30 14z" />
    <glyph glyph-name="yacute" unicode="&#xfd;" horiz-adv-x="442" 
d="M220 610q-4 0 -5 4.5t0 8.5l38 95q2 5 13 5h50q6 0 7 -4t-3 -9l-59 -97q-2 -4 -13 -4zM466 277q3 11 17.5 14.5t27.5 -1t11 -13.5q-22 -115 -80 -191t-185 -161q-29 -150 -75.5 -222.5t-114.5 -72.5q-39 0 -62.5 23t-23.5 59q0 110 225 244l17 93q-54 -59 -118 -59
q-51 0 -79.5 30.5t-28.5 83.5q0 21 4 40l69 397q2 9 11 9h36q10 0 9 -11l-69 -395q-3 -15 -3 -29q0 -69 61 -69q42 0 79.5 44.5t54.5 110.5l60 340q1 9 11 9h36q10 0 9 -11l-96 -543q93 64 136 127t61 154zM73 -314q75 0 120 200q-156 -97 -156 -166q0 -16 10 -25t26 -9z
" />
    <glyph glyph-name="thorn" unicode="&#xfe;" horiz-adv-x="396" 
d="M225 556q32 0 55 -9.5t36.5 -29t20.5 -44.5t7 -59.5t-3.5 -69.5t-11.5 -80q-17 -97 -43 -157t-63.5 -88.5t-91.5 -28.5q-29 0 -54.5 15.5t-36.5 41.5l-70 -397q-3 -15 -30 -15q-12 0 -19.5 4t-6.5 11l204 1160q3 15 31 15q11 0 18.5 -4t6.5 -11l-52 -296q39 42 103 42z
M273 264q7 39 10.5 65.5t5 56t-2 48.5t-11 35t-23 23.5t-37.5 7.5q-53 0 -82.5 -50.5t-53.5 -180.5q-8 -43 -12 -73t-3.5 -61t7.5 -49.5t23 -30.5t41 -12q51 0 84 50t54 171z" />
    <glyph glyph-name="ydieresis" unicode="&#xff;" horiz-adv-x="442" 
d="M155.5 614q-19.5 0 -24.5 9t-2 35q4 25 13 34t28.5 9t25.5 -9.5t1 -33.5q-4 -25 -13 -34.5t-28.5 -9.5zM298 614q-19 0 -24 9t-2 35q4 25 13 34t28.5 9t25.5 -9.5t1 -33.5q-3 -17 -7.5 -26t-12.5 -13.5t-22 -4.5zM466 277q3 11 17.5 14.5t27.5 -1t11 -13.5
q-22 -115 -80 -191t-185 -161q-29 -149 -75.5 -222t-114.5 -73q-39 0 -62.5 23t-23.5 59q0 110 225 244l17 93q-54 -59 -118 -59q-51 0 -79.5 30.5t-28.5 83.5q0 21 4 40l69 397q2 9 11 9h36q10 0 9 -11l-69 -395q-3 -15 -3 -29q0 -69 61 -69q42 0 79.5 44.5t54.5 110.5
l60 340q1 9 11 9h36q10 0 9 -11l-96 -543q93 64 136 127t61 154zM73 -314q75 0 120 200q-156 -97 -156 -166q0 -16 10 -25t26 -9z" />
    <glyph glyph-name="Amacron" unicode="&#x100;" 
d="M502 870q-11 0 -9 11l6 38q2 9 11 9h226q11 0 9 -11l-6 -38q-2 -9 -11 -9h-226zM732 298q11 0 19 -4.5t7 -11.5q-19 -106 -45 -169t-62 -91.5t-88 -28.5q-50 0 -76 28.5t-26 81.5q0 25 6 59l15 87q-15 1 -32 3.5t-30 5.5t-32 7.5t-33 7.5q-26 -62 -52 -109.5t-57.5 -89
t-67.5 -63.5t-76 -22q-44 0 -73.5 13.5t-43 37.5t-13.5 57q0 16 3 34q7 38 28.5 73.5t57 66t91 49t121.5 18.5q26 0 50 -2q12 30 30.5 81t30.5 84t30.5 78.5t32.5 74.5t33 61.5t36.5 51.5t38.5 31.5t43 13.5h28q11 0 9 -10l-86 -494q34 5 53 17q11 6 14 -3l12 -29
q4 -10 -4 -15q-29 -18 -85 -26l-16 -90q-6 -34 -6 -51q0 -62 56 -62q47 0 76.5 51t52.5 182q3 16 30 16zM377 328q17 -3 41 -9t41.5 -9.5t32.5 -4.5l79 447q-18 -8 -37 -35.5t-38.5 -74t-36 -90.5t-40.5 -112t-42 -112zM111 45q54 0 99.5 61.5t91.5 173.5q-19 2 -39 2
q-55 0 -100.5 -17t-72.5 -43t-41.5 -55.5t-14.5 -57.5q0 -64 77 -64z" />
    <glyph glyph-name="amacron" unicode="&#x101;" horiz-adv-x="469" 
d="M127 613q-11 0 -9 11l6 38q2 9 11 9h226q11 0 9 -11l-6 -38q-2 -9 -11 -9h-226zM494 282q2 14 32 13q25 -1 24 -13q-28 -161 -71.5 -226.5t-119.5 -65.5q-39 0 -65 21.5t-36 57.5q-42 -79 -129 -79q-38 0 -63.5 15t-38.5 39.5t-16 63t0.5 79.5t13.5 95q26 145 72 209.5
t126 64.5q30 0 55 -15.5t36 -42.5l8 43q2 9 11 9h37q11 0 9 -11l-67 -377q-3 -17 -3 -33q0 -37 16 -60t44 -23q45 0 73.5 52t51.5 184zM139 46q53 0 83.5 51t52.5 180q8 43 12 73t3.5 61t-7.5 49.5t-23 30.5t-41 12q-51 0 -83.5 -49.5t-54.5 -171.5q-7 -39 -10.5 -65.5
t-5 -56t2 -48t11 -35t23 -24t37.5 -7.5z" />
    <glyph glyph-name="Abreve" unicode="&#x102;" 
d="M609 867q-48 0 -69.5 26.5t-12.5 70.5q2 8 11 8h35q10 0 9 -11q-4 -20 4.5 -30t32.5 -10q46 0 53 43q2 9 11 9h35q5 0 7.5 -2.5t1.5 -6.5q-6 -44 -35.5 -70.5t-82.5 -26.5zM732 298q11 0 19 -4.5t7 -11.5q-28 -157 -73 -223t-122 -66q-50 0 -76 28.5t-26 81.5q0 25 6 59
l15 87q-19 1 -39.5 4.5t-46.5 10t-41 9.5q-26 -62 -52 -109.5t-57.5 -89t-68 -63.5t-75.5 -22q-44 0 -73.5 13.5t-43 37.5t-13.5 57q0 16 3 34q7 38 28.5 73.5t57 66t91 49t121.5 18.5q26 0 50 -2q12 30 30.5 81t30.5 84t30.5 78.5t32.5 74.5t33 61.5t36.5 51.5t38.5 31.5
t43 13.5h28q11 0 9 -10l-86 -494q34 5 53 17q11 6 14 -3l12 -29q4 -10 -4 -15q-29 -18 -85 -26l-16 -90q-6 -34 -6 -51q0 -62 56 -62q47 0 76.5 51t52.5 182q3 16 30 16zM377 328q17 -3 41 -9t41.5 -9.5t32.5 -4.5l79 447q-16 -7 -32 -29t-30 -51t-31.5 -73t-31 -83
t-33.5 -93.5t-36 -94.5zM111 45q54 0 99.5 61.5t91.5 173.5q-19 2 -39 2q-55 0 -100.5 -17t-72.5 -43t-41.5 -55.5t-14.5 -57.5q0 -64 77 -64z" />
    <glyph glyph-name="abreve" unicode="&#x103;" horiz-adv-x="469" 
d="M234 610q-48 0 -69.5 26.5t-12.5 70.5q2 8 11 8h35q10 0 9 -11q-4 -20 4.5 -30t32.5 -10q46 0 53 43q2 9 11 9h35q5 0 7.5 -2.5t1.5 -6.5q-6 -44 -35.5 -70.5t-82.5 -26.5zM494 282q2 14 32 13q25 -1 24 -13q-28 -161 -71.5 -226.5t-119.5 -65.5q-39 0 -65 21.5t-36 57.5
q-42 -79 -129 -79q-38 0 -63.5 15t-38.5 39.5t-16 63t0.5 79.5t13.5 95q26 145 72 209.5t126 64.5q30 0 55 -15.5t36 -42.5l8 43q2 9 11 9h37q11 0 9 -11l-67 -377q-3 -17 -3 -33q0 -37 15.5 -60t44.5 -23q45 0 73.5 52t51.5 184zM139 46q53 0 83.5 51t52.5 180q8 43 12 73
t3.5 61t-7.5 49.5t-23 30.5t-41 12q-51 0 -83.5 -49.5t-54.5 -171.5q-6 -33 -9 -56.5t-5.5 -50t-1.5 -44t5.5 -35t13 -28t22.5 -16.5t33 -6z" />
    <glyph glyph-name="Aogonek" unicode="&#x104;" 
d="M732 298q11 0 19 -4.5t7 -11.5q-27 -147 -67.5 -213.5t-107.5 -74.5q-26 -31 -35.5 -42t-22 -28t-17 -26t-5.5 -17q-5 -30 29 -30q11 0 21 7q8 6 14 -2l16 -22q6 -7 1 -12q-26 -27 -62 -27q-41 0 -61.5 24t-13.5 62q4 22 23.5 48t60.5 68q-70 16 -70 106q0 25 6 59l15 87
q-15 1 -32 3.5t-30 5.5t-32 7.5t-33 7.5q-26 -62 -52 -109.5t-57.5 -89t-67.5 -63.5t-76 -22q-44 0 -73.5 13.5t-43 37.5t-13.5 57q0 16 3 34q7 38 28.5 73.5t57 66t91 49t121.5 18.5q26 0 50 -2q12 30 30.5 81t30.5 84t30.5 78.5t32.5 74.5t33 61.5t36.5 51.5t38.5 31.5
t43 13.5h28q11 0 9 -10l-86 -494q34 5 53 17q11 6 14 -3l12 -29q4 -10 -4 -15q-29 -18 -85 -26l-16 -90q-6 -34 -6 -51q0 -62 56 -62q47 0 76.5 51t52.5 182q3 16 30 16zM377 328q17 -3 41 -9t41.5 -9.5t32.5 -4.5l79 447q-18 -8 -37 -35.5t-38.5 -74t-36 -90.5t-40.5 -112
t-42 -112zM111 45q54 0 99.5 61.5t91.5 173.5q-19 2 -39 2q-55 0 -100.5 -17t-72.5 -43t-41.5 -55.5t-14.5 -57.5q0 -64 77 -64z" />
    <glyph glyph-name="aogonek" unicode="&#x105;" horiz-adv-x="469" 
d="M494 282q2 14 32 13q25 -1 24 -13q-27 -150 -66 -217t-106 -74q-31 -38 -43 -52.5t-22 -30.5t-12 -27q-5 -30 29 -30q11 0 21 7q8 6 14 -2l16 -22q6 -7 1 -12q-26 -27 -62 -27q-41 0 -61.5 23.5t-13.5 62.5q4 22 23 47.5t59 65.5q-52 15 -69 75q-42 -79 -129 -79
q-38 0 -63.5 15t-38.5 39.5t-16 63t0.5 79.5t13.5 95q26 145 72 209.5t126 64.5q30 0 55 -15.5t36 -42.5l8 43q2 9 11 9h37q11 0 9 -11l-67 -377q-3 -17 -3 -33q0 -37 16 -60t44 -23q45 0 73.5 52t51.5 184zM139 46q53 0 83.5 51t52.5 180q8 43 12 73t3.5 61t-7.5 49.5
t-23 30.5t-41 12q-51 0 -83.5 -49.5t-54.5 -171.5q-7 -39 -10.5 -65.5t-5 -56t2 -48t11 -35t23 -24t37.5 -7.5z" />
    <glyph glyph-name="Cacute" unicode="&#x106;" horiz-adv-x="420" 
d="M329 883q-4 0 -5.5 4.5t0.5 8.5l38 95q2 5 13 5h50q5 0 6 -4t-2 -9l-59 -97q-3 -4 -13 -4zM230 -10q-77 0 -127.5 29t-72 80.5t-25 122t12.5 153.5q28 163 67.5 260.5t96.5 143.5t139 46q132 0 132 -144q0 -35 -10 -65q-3 -9 -13 -8l-29 2q-11 1 -9 11q7 33 7 58
q0 90 -88 90q-92 0 -145.5 -88.5t-91.5 -305.5q-59 -329 166 -329q73 0 128 55t77 181q2 14 32 13q25 -1 24 -13q-52 -292 -271 -292z" />
    <glyph glyph-name="cacute" unicode="&#x107;" horiz-adv-x="352" 
d="M228 615q-4 0 -5.5 4.5t0.5 8.5l38 95q2 5 13 5h50q5 0 6 -4t-2 -9l-59 -97q-3 -4 -13 -4zM263 383q-11 1 -8 12q8 26 8 46q0 28 -13 44.5t-38 16.5q-47 0 -79 -55t-53 -170q-9 -51 -9 -91q0 -65 29 -102.5t86 -37.5q70 0 119.5 61t71.5 175q3 12 33 12q25 0 23 -12
q-25 -141 -92 -216.5t-167 -75.5q-53 0 -88.5 21.5t-53.5 62t-18 100.5q0 49 10 103q51 281 199 281q47 0 72.5 -28t25.5 -76q0 -30 -11 -67q-3 -9 -12 -8z" />
    <glyph glyph-name="Cdotaccent" unicode="&#x10a;" horiz-adv-x="420" 
d="M335 891q-20 0 -25.5 9.5t-0.5 34.5q4 25 13 34t29 9q19 0 25 -9t1 -34t-13.5 -34.5t-28.5 -9.5zM230 -10q-77 0 -127.5 29t-72 80.5t-25 122t12.5 153.5q42 242 111.5 346t191.5 104q132 0 132 -144q0 -35 -10 -65q-3 -9 -13 -8l-29 2q-11 1 -9 11q7 33 7 58
q0 90 -88 90q-92 0 -145.5 -88.5t-91.5 -305.5q-59 -329 166 -329q73 0 128 55t77 181q2 14 32 13q25 -1 24 -13q-52 -292 -271 -292z" />
    <glyph glyph-name="cdotaccent" unicode="&#x10b;" horiz-adv-x="352" 
d="M234 623q-20 0 -25.5 9.5t-0.5 34.5q4 25 13 34t29 9q19 0 25 -9t1 -34t-13.5 -34.5t-28.5 -9.5zM263 383q-11 1 -8 12q8 26 8 46q0 28 -13 44.5t-38 16.5q-47 0 -79 -55t-53 -170q-9 -51 -9 -91q0 -65 29 -102.5t86 -37.5q70 0 119.5 61t71.5 175q3 12 33 12
q25 0 23 -12q-25 -141 -92 -216.5t-167 -75.5q-53 0 -88.5 21.5t-53.5 62t-18 100.5q0 49 10 103q51 281 199 281q47 0 72.5 -28t25.5 -76q0 -30 -11 -67q-3 -9 -12 -8z" />
    <glyph glyph-name="Ccaron" unicode="&#x10c;" horiz-adv-x="420" 
d="M299 882q-8 0 -11 7l-36 99q-5 12 9 12h30q7 0 11 -6l34 -58l54 58q6 6 13 6h30q14 0 5 -12l-72 -99q-5 -7 -13 -7h-54zM230 -10q-77 0 -127.5 29t-72 80.5t-25 122t12.5 153.5q42 242 111.5 346t191.5 104q132 0 132 -144q0 -35 -10 -65q-3 -9 -13 -8l-29 2q-11 1 -9 11
q7 33 7 58q0 90 -88 90q-92 0 -145.5 -88.5t-91.5 -305.5q-59 -329 166 -329q73 0 128 55t77 181q2 14 32 13q25 -1 24 -13q-52 -292 -271 -292z" />
    <glyph glyph-name="ccaron" unicode="&#x10d;" horiz-adv-x="352" 
d="M198 614q-8 0 -11 7l-36 99q-5 12 9 12h30q7 0 11 -6l34 -58l54 58q6 6 13 6h30q14 0 5 -12l-72 -99q-5 -7 -13 -7h-54zM263 383q-11 1 -8 12q8 26 8 46q0 28 -13 44.5t-38 16.5q-47 0 -79 -55t-53 -170q-9 -51 -9 -91q0 -65 29 -102.5t86 -37.5q70 0 119.5 61t71.5 175
q3 12 33 12q24 0 23 -12q-25 -141 -92 -216.5t-167 -75.5q-79 0 -119.5 47t-40.5 137q0 49 10 103q51 281 199 281q47 0 72.5 -28t25.5 -76q0 -30 -11 -67q-3 -9 -12 -8z" />
    <glyph glyph-name="Dcaron" unicode="&#x10e;" horiz-adv-x="662" 
d="M352 888l-36 99q-5 12 9 12h30q7 0 11 -6l34 -58l54 58q6 6 13 6h30q14 0 5 -12l-72 -99q-5 -7 -13 -7h-54q-8 0 -11 7zM388 825q260 0 260 -262q0 -84 -12.5 -165t-40 -156.5t-66.5 -132.5t-96.5 -91t-126.5 -34q-42 0 -73 12t-63 33q-42 -41 -101 -41q-33 0 -49.5 16.5
t-16.5 40.5q0 32 25 56.5t66 24.5q32 0 65 -17q39 75 76 290q1 7 4 22q7 42 10.5 62t10.5 55.5t12 53.5t13.5 44t17 39.5t20 28t25 21t29.5 8.5q10 1 10 -9l2 -37q0 -8 -9 -10q-29 -9 -46 -69.5t-43 -208.5q-1 -7 -8 -46.5t-9.5 -52t-9 -46t-11 -50.5t-12 -43t-16 -45.5
t-18.5 -36.5q60 -39 109 -39q61 0 110.5 35.5t79 90t50 125.5t28 136t7.5 128q0 111 -53 162.5t-160 51.5q-138 0 -210 -81t-72 -222q0 -21 4 -39t11 -32t16.5 -25t21 -17t24.5 -8q10 -2 8 -11l-6 -37q-1 -9 -11 -9q-51 4 -87.5 48.5t-36.5 131.5q0 162 94 259.5t254 97.5z
M73 44q27 0 48 16q-22 10 -43 10q-8 0 -12 -4.5t-4 -10.5q0 -11 11 -11z" />
    <glyph glyph-name="dcaron" unicode="&#x10f;" horiz-adv-x="469" 
d="M494 282q2 14 32 13q25 -1 24 -13q-28 -161 -71.5 -226.5t-119.5 -65.5q-26 0 -47 10t-34 27.5t-20 41.5q-42 -79 -129 -79q-38 0 -63.5 15t-38.5 39.5t-16 63t0.5 79.5t13.5 95q26 145 72 209.5t126 64.5q30 0 55 -15.5t37 -42.5l53 303q2 9 11 9h37q11 0 9 -11
l-113 -637q-3 -17 -3 -33q0 -37 16 -60t44 -23q45 0 73.5 52t51.5 184zM452 629q-6 -3 -14 6t-4 15q36 47 23 93q-2 10 4 20.5t17 14.5q25 10 37 -15q7 -15 2 -45q-4 -19 -13 -37t-22.5 -31t-29.5 -21zM139 46q53 0 83.5 51t52.5 180q8 43 12 73t3.5 61t-7.5 49.5t-23 30.5
t-41 12q-51 0 -83.5 -49.5t-54.5 -171.5q-7 -39 -10.5 -65.5t-5 -56t2 -48t11 -35t23 -24t37.5 -7.5z" />
    <glyph glyph-name="Dcroat" unicode="&#x110;" horiz-adv-x="662" 
d="M388 825q260 0 260 -262q0 -84 -12.5 -165t-40 -156.5t-66.5 -132.5t-96.5 -91t-126.5 -34q-42 0 -73 12t-63 33q-42 -41 -101 -41q-33 0 -49.5 16.5t-16.5 40.5q0 32 25 56.5t66 24.5q32 0 65 -17q39 75 76 290q11 67 12 73h-31q-11 0 -9 11l6 38q2 9 11 9h34
q19 96 45.5 147t73.5 56q10 1 10 -9l2 -37q0 -8 -9 -10q-14 -4 -26 -23.5t-20.5 -48.5t-18.5 -75h75q11 0 9 -11l-7 -38q-1 -9 -10 -9h-78q-4 -22 -13 -73q-2 -11 -7 -41.5t-7.5 -44t-8 -41.5t-9 -44t-10 -40t-12.5 -40.5t-13.5 -35t-16.5 -33.5q60 -39 109 -39
q61 0 110.5 35.5t79.5 90t50 125.5t27.5 136t7.5 128q0 111 -53 162.5t-160 51.5q-138 0 -210 -81t-72 -222q0 -51 22 -83.5t55 -37.5q10 -2 8 -11l-6 -37q-1 -9 -11 -9q-51 4 -87.5 48.5t-36.5 131.5q0 162 94 259.5t254 97.5zM73 44q27 0 48 16q-22 10 -43 10
q-8 0 -12 -4.5t-4 -10.5q0 -11 11 -11z" />
    <glyph glyph-name="dcroat" unicode="&#x111;" horiz-adv-x="469" 
d="M494 282q2 14 32 13q25 -1 24 -13q-28 -161 -71.5 -226.5t-119.5 -65.5q-26 0 -47 10t-34 27.5t-20 41.5q-42 -79 -129 -79q-38 0 -63.5 15t-38.5 39.5t-16 63t0.5 79.5t13.5 95q26 145 72 209.5t126 64.5q30 0 55 -15.5t37 -42.5l25 143h-46q-11 0 -9 11l7 38q1 9 11 9
h47l18 102q2 9 11 9h37q11 0 9 -11l-18 -100h61q11 0 9 -11l-6 -38q-2 -9 -11 -9h-63l-85 -479q-3 -17 -3 -33q0 -37 16 -60t44 -23q45 0 73.5 52t51.5 184zM139 46q53 0 83.5 51t52.5 180q8 43 12 73t3.5 61t-7.5 49.5t-23 30.5t-41 12q-51 0 -83.5 -49.5t-54.5 -171.5
q-6 -33 -9 -56.5t-5.5 -50t-1.5 -44t5.5 -35t13 -28t22.5 -16.5t33 -6z" />
    <glyph glyph-name="Emacron" unicode="&#x112;" horiz-adv-x="460" 
d="M258 881q-11 0 -9 11l7 38q1 9 10 9h226q11 0 9 -11l-6 -38q-2 -9 -11 -9h-226zM242 -15q-123 0 -186.5 57t-63.5 161q0 88 46.5 152.5t128.5 90.5q-23 15 -39 54t-16 84q-2 98 52.5 166t144.5 68q44 0 75 -15t44 -40t16 -57t-6 -67q-2 -9 -12 -8l-35 2q-10 1 -8 12
q6 20 4 41t-8.5 37.5t-25 27.5t-47.5 11q-65 0 -102.5 -53t-36.5 -125q1 -31 11 -55.5t27.5 -40t39.5 -22.5q7 -2 30 -5q12 -2 10 -11l-6 -36q-2 -8 -10 -8q-20 0 -30 -1q-61 -5 -104 -32t-64.5 -70t-21.5 -100q0 -78 52 -120t141 -42q86 0 155 66.5t88 174.5q2 10 17 14.5
t28 0t11 -14.5q-24 -137 -107.5 -217t-191.5 -80z" />
    <glyph glyph-name="emacron" unicode="&#x113;" horiz-adv-x="372" 
d="M123 608q-11 0 -9 11l6 38q2 9 11 9h226q11 0 9 -11l-6 -38q-2 -9 -11 -9h-226zM190 -10q-86 0 -131 50t-45 138q0 42 9 93q24 138 74.5 211t124.5 73q51 0 79 -30.5t28 -83.5q0 -27 -5 -48q-6 -30 -17.5 -53t-29.5 -37.5t-36 -24t-48 -15.5t-54 -8.5t-63 -4.5
q-5 -37 -5 -61q0 -66 33.5 -104.5t96.5 -38.5q155 0 196 236q3 14 32 14q11 0 18 -3.5t6 -10.5q-26 -146 -90 -219t-173 -73zM87 307q25 1 36 2t30.5 2.5t28 3t22 5t19.5 7.5t15 10.5t13.5 14.5t9 18.5t7.5 23.5q4 16 4 34q0 33 -16 52t-44 19q-86 0 -125 -192z" />
    <glyph glyph-name="Edotaccent" unicode="&#x116;" horiz-adv-x="460" 
d="M366 891q-20 0 -25 9.5t-1 34.5q5 25 14 34t28.5 9t25 -9t0.5 -34q-3 -17 -7.5 -26t-12.5 -13.5t-22 -4.5zM242 -15q-123 0 -186.5 57t-63.5 161q0 88 46.5 152.5t128.5 90.5q-23 15 -39 54t-16 84q-2 98 52.5 166t144.5 68q44 0 75 -15t44 -40t16 -57t-6 -67
q-2 -9 -12 -8l-35 2q-10 1 -8 12q6 20 4 41t-8.5 37.5t-25 27.5t-47.5 11q-65 0 -102.5 -53t-36.5 -125q1 -31 11 -55.5t27.5 -40t39.5 -22.5q7 -2 30 -5q12 -2 10 -11l-6 -36q-2 -8 -10 -8q-20 0 -30 -1q-61 -5 -104 -32t-64.5 -70t-21.5 -100q0 -78 52 -120t141 -42
q86 0 155 66.5t88 174.5q2 10 17 14.5t28 0t11 -14.5q-24 -137 -107.5 -217t-191.5 -80z" />
    <glyph glyph-name="edotaccent" unicode="&#x117;" horiz-adv-x="372" 
d="M231 618q-20 0 -25.5 9.5t-0.5 34.5q4 25 13 34t29 9q19 0 25 -9t1 -34t-13.5 -34.5t-28.5 -9.5zM190 -10q-86 0 -131 50t-45 138q0 42 9 93q50 284 199 284q51 0 79 -30.5t28 -83.5q0 -27 -5 -48q-8 -36 -24 -61.5t-35 -40t-52.5 -23.5t-61 -12t-75.5 -6q-5 -37 -5 -61
q0 -66 33.5 -104.5t96.5 -38.5q155 0 196 236q3 14 32 14q11 0 18 -3.5t6 -10.5q-26 -146 -90 -219t-173 -73zM87 307q44 2 62.5 3.5t44.5 6.5t37 14t21.5 24t15.5 39q4 16 4 34q0 33 -16 52t-44 19q-86 0 -125 -192z" />
    <glyph glyph-name="Eogonek" unicode="&#x118;" horiz-adv-x="460" 
d="M485 282q2 10 17 14.5t28 0t11 -14.5q-9 -52 -27.5 -96.5t-44 -79.5t-58.5 -60q4 -2 1 -6q-6 -7 -15 -18q-43 -51 -57.5 -71.5t-17.5 -35.5q-5 -30 29 -30q11 0 21 7q9 6 14 -2l17 -22q5 -7 0 -12q-26 -27 -62 -27q-41 0 -61.5 23.5t-13.5 62.5q6 32 50 81
q-36 -11 -74 -11q-123 0 -186.5 57t-63.5 161q0 88 46.5 152.5t128.5 90.5q-23 15 -39 54t-16 84q-2 98 52.5 166t144.5 68q44 0 75 -15t44 -40t16 -57t-6 -67q-2 -9 -12 -8l-35 2q-10 1 -8 12q6 20 4 41t-8.5 37.5t-25 27.5t-47.5 11q-65 0 -102.5 -53t-36.5 -125
q1 -31 11 -55.5t27.5 -40t39.5 -22.5q7 -2 30 -5q12 -2 10 -11l-6 -36q-2 -8 -10 -8q-20 0 -30 -1q-61 -5 -104 -32t-64.5 -70t-21.5 -100q0 -78 52 -120t141 -42q86 0 155 66.5t88 174.5z" />
    <glyph glyph-name="eogonek" unicode="&#x119;" horiz-adv-x="372" 
d="M429 296q11 0 18 -3.5t6 -10.5q-40 -225 -171 -276q-2 -2 -5 -6q-43 -51 -58 -71.5t-17 -35.5q-5 -30 29 -30q11 0 21 7q8 5 14 -2l16 -22q6 -7 1 -12q-26 -27 -62 -27q-41 0 -61.5 23.5t-13.5 62.5q6 36 67 98q-11 -1 -23 -1q-86 0 -131 50t-45 138q0 42 9 93
q50 284 199 284q51 0 79 -30.5t28 -83.5q0 -27 -5 -48q-8 -36 -24 -61.5t-35 -40t-52.5 -23.5t-61 -12t-75.5 -6q-5 -37 -5 -61q0 -66 33.5 -104.5t96.5 -38.5q155 0 196 236q3 14 32 14zM212 499q-86 0 -125 -192q25 1 36 2t30.5 2.5t28 3t22 5t19.5 7.5t15 10.5t13.5 14.5
t9 18.5t7.5 23.5q4 16 4 34q0 33 -16 52t-44 19z" />
    <glyph glyph-name="Ecaron" unicode="&#x11a;" horiz-adv-x="460" 
d="M330 882q-8 0 -11 7l-36 99q-5 12 9 12h30q7 0 11 -6l34 -58l54 58q6 6 13 6h30q14 0 5 -12l-71 -99q-6 -7 -14 -7h-54zM242 -15q-123 0 -186.5 57t-63.5 161q0 88 46.5 152.5t128.5 90.5q-23 15 -39 54t-16 84q-2 98 52.5 166t144.5 68q44 0 75 -15t44 -40t16 -57
t-6 -67q-2 -9 -12 -8l-35 2q-10 1 -8 12q6 20 4 41t-8.5 37.5t-25 27.5t-47.5 11q-66 0 -103 -53t-36 -125q1 -31 11 -55.5t27.5 -40t39.5 -22.5q7 -2 30 -5q12 -2 10 -11l-6 -36q-2 -8 -10 -8q-20 0 -30 -1q-91 -8 -140.5 -62t-49.5 -140q0 -78 52 -120t141 -42
q86 0 155 66.5t88 174.5q2 10 17 14.5t28 0t11 -14.5q-24 -137 -107.5 -217t-191.5 -80z" />
    <glyph glyph-name="ecaron" unicode="&#x11b;" horiz-adv-x="372" 
d="M195 609q-8 0 -11 7l-36 99q-5 12 9 12h30q7 0 11 -6l34 -58l54 58q6 6 13 6h30q14 0 5 -12l-72 -99q-5 -7 -13 -7h-54zM190 -10q-86 0 -131 50t-45 138q0 42 9 93q24 138 74.5 211t124.5 73q51 0 79 -30.5t28 -83.5q0 -27 -5 -48q-6 -30 -17.5 -53t-29.5 -37.5t-36 -24
t-48 -15.5t-54 -8.5t-63 -4.5q-5 -37 -5 -61q0 -66 33.5 -104.5t96.5 -38.5q155 0 196 236q3 14 32 14q11 0 18 -3.5t6 -10.5q-26 -146 -90 -219t-173 -73zM87 307q25 1 36 2t30.5 2.5t27.5 3t22 5t20 7.5t15 10.5t13.5 14.5t9 18.5t7.5 23.5q4 16 4 34q0 33 -16 52t-44 19
q-86 0 -125 -192z" />
    <glyph glyph-name="Gbreve" unicode="&#x11e;" horiz-adv-x="552" 
d="M334 878q-48 0 -69.5 26.5t-12.5 70.5q2 8 11 8h35q10 0 9 -11q-4 -20 4.5 -30t32.5 -10q46 0 53 43q2 9 11 9h35q5 0 7.5 -2.5t1.5 -6.5q-6 -44 -35.5 -70.5t-82.5 -26.5zM606 295q12 0 19.5 -3.5t6.5 -9.5l-2 -15q-9 -53 -29 -98.5t-41.5 -76t-57.5 -63t-62 -50.5
t-69 -47q-29 -153 -76 -227.5t-116 -74.5q-39 0 -62.5 23t-23.5 59q0 28 15.5 58.5t36 54t55 51t59 44.5t61.5 40l18 108q-65 -78 -156 -78q-94 0 -138 51.5t-44 162.5q0 72 18 171q21 121 48 204.5t63.5 138.5t84 80t109.5 25q40 0 69 -13.5t44.5 -36t22.5 -48t7 -54.5
q0 -38 -8 -68q-3 -9 -12 -8l-35 4q-11 2 -8 11q7 31 7 56q0 44 -23 72.5t-74 28.5q-94 0 -148 -88t-91 -304q-17 -99 -17 -161q0 -88 32.5 -128t102.5 -40q63 0 111.5 61.5t71.5 171.5l29 162q1 9 11 9h36q11 0 9 -11l-77 -438q39 27 67 50.5t54 55t43.5 71.5t26.5 89l2 15
q1 13 30 13zM186 -314q75 0 120 204q-70 -47 -113 -88.5t-43 -81.5q0 -16 9.5 -25t26.5 -9z" />
    <glyph glyph-name="gbreve" unicode="&#x11f;" horiz-adv-x="453" 
d="M250 611q-48 0 -69.5 26.5t-12.5 70.5q2 8 11 8h35q10 0 9 -11q-4 -20 4.5 -30t32.5 -10q46 0 53 43q2 9 11 9h35q5 0 7.5 -2.5t1.5 -6.5q-6 -44 -35.5 -70.5t-82.5 -26.5zM478 282q2 11 16.5 14.5t27.5 -1t12 -13.5q-22 -114 -79.5 -189.5t-183.5 -160.5
q-29 -153 -76 -227.5t-116 -74.5q-39 0 -62.5 23t-23.5 59q0 28 15 58t36 53.5t55 51.5t58.5 44.5t61.5 40.5l12 71q-38 -41 -102 -41q-32 0 -55 10t-36.5 29t-20.5 44t-7 59.5t3.5 69.5t11.5 80q26 145 72 209.5t126 64.5q30 0 55 -15.5t36 -42.5l8 43q2 9 11 9h37
q11 0 9 -11l-96 -537q38 26 66 51.5t49.5 50.5t36.5 53.5t25.5 58.5t17.5 66zM275 277v3l4 22q9 48 11 81t-3 62t-22 43.5t-46 14.5q-51 0 -84 -50t-54 -171q-6 -33 -9 -56.5t-5.5 -49.5t-1.5 -44t5.5 -35.5t13 -28t22.5 -16.5t33 -6q53 0 82.5 50.5t53.5 180.5zM86 -314
q74 0 119 203q-70 -46 -112.5 -87.5t-42.5 -81.5q0 -10 4.5 -18t12.5 -12t19 -4z" />
    <glyph glyph-name="Gdotaccent" unicode="&#x120;" horiz-adv-x="552" 
d="M335 891q-20 0 -25.5 9.5t-0.5 34.5q4 25 13 34t29 9q19 0 25 -9t1 -34t-13.5 -34.5t-28.5 -9.5zM606 295q12 0 19.5 -3.5t6.5 -9.5l-2 -15q-8 -44 -21.5 -82t-35 -69.5t-41 -55.5t-51 -49t-53 -40t-57.5 -39q-29 -153 -76 -227.5t-116 -74.5q-39 0 -62.5 23t-23.5 59
q0 28 15.5 58.5t36 54t55 51t59 44.5t61.5 40l18 108q-65 -78 -156 -78q-94 0 -138 51.5t-44 162.5q0 72 18 171q21 121 48 204.5t64 138.5t84 80t109 25q32 0 57.5 -9t41.5 -23.5t26 -35t14 -41t4 -43.5q0 -38 -8 -68q-3 -9 -12 -8l-35 4q-11 2 -8 11q7 31 7 56
q0 44 -23 72.5t-74 28.5q-94 0 -148 -88t-91 -304q-17 -99 -17 -161q0 -88 32.5 -128t102.5 -40q63 0 112 61.5t72 171.5l28 162q2 9 11 9h36q11 0 9 -11l-77 -438q39 27 67 50.5t54.5 55t43.5 71.5t26 89l2 15q1 13 30 13zM186 -314q75 0 120 204q-70 -47 -113 -88.5
t-43 -81.5q0 -16 9.5 -25t26.5 -9z" />
    <glyph glyph-name="gdotaccent" unicode="&#x121;" horiz-adv-x="453" 
d="M251 624q-20 0 -25.5 9.5t-0.5 34.5q4 25 13 34t29 9q19 0 25 -9t1 -34t-13.5 -34.5t-28.5 -9.5zM478 282q2 11 16.5 14.5t27.5 -1t12 -13.5q-22 -114 -79.5 -189.5t-183.5 -160.5q-29 -153 -76 -227.5t-116 -74.5q-39 0 -62.5 23t-23.5 59q0 28 15 58t36 53.5t55 51.5
t58.5 44.5t61.5 40.5l12 71q-38 -41 -102 -41q-32 0 -55 10t-36.5 29t-20.5 44t-7 59.5t3.5 69.5t11.5 80q26 145 72 209.5t126 64.5q30 0 55 -15.5t36 -42.5l8 43q2 9 11 9h37q11 0 9 -11l-96 -537q92 64 134.5 126.5t60.5 153.5zM275 277v3l5 22q8 48 10 81t-3 62
t-21.5 43.5t-46.5 14.5q-51 0 -84 -50t-54 -171q-7 -39 -10.5 -65.5t-5 -56t2 -48t11 -35t23 -24t37.5 -7.5q53 0 82.5 50.5t53.5 180.5zM86 -314q74 0 119 203q-32 -21 -56 -39.5t-48.5 -41t-37.5 -45t-13 -43.5q0 -16 9.5 -25t26.5 -9z" />
    <glyph glyph-name="Gcommaaccent" unicode="&#x122;" horiz-adv-x="552" 
d="M606 295q12 0 19.5 -3.5t6.5 -9.5l-2 -15q-8 -44 -21.5 -82t-35 -69.5t-41 -55.5t-51 -49t-53 -40t-57.5 -39q-29 -153 -76 -227.5t-116 -74.5q-39 0 -62.5 23t-23.5 59q0 28 15.5 58.5t36 54t55 51t59 44.5t61.5 40l18 108q-65 -78 -156 -78q-94 0 -138 51.5t-44 162.5
q0 72 18 171q21 121 48 204.5t64 138.5t84 80t109 25q32 0 57.5 -9t41.5 -23.5t26 -35t14 -41t4 -43.5q0 -38 -8 -68q-3 -9 -12 -8l-35 4q-11 2 -8 11q7 31 7 56q0 44 -23 72.5t-74 28.5q-94 0 -148 -88t-91 -304q-17 -99 -17 -161q0 -88 32.5 -128t102.5 -40q63 0 112 61.5
t72 171.5l28 162q2 9 11 9h36q11 0 9 -11l-77 -438q39 27 67 50.5t54.5 55t43.5 71.5t26 89l2 15q1 13 30 13zM186 -314q75 0 120 204q-70 -47 -113 -88.5t-43 -81.5q0 -16 9.5 -25t26.5 -9zM178 -409q26 10 37 -15q7 -15 2 -44q-5 -31 -22.5 -55t-41.5 -35q-7 -3 -14.5 6
t-3.5 15q35 47 23 93q-3 10 3.5 20.5t16.5 14.5z" />
    <glyph glyph-name="gcommaaccent" unicode="&#x123;" horiz-adv-x="453" 
d="M256 603q-23 -9 -33 14q-7 14 -2 40q5 28 21 49.5t37 31.5q4 2 9 -1.5t7.5 -8.5t0.5 -8q-32 -43 -21 -85q2 -9 -3.5 -18.5t-15.5 -13.5zM478 282q2 11 16.5 14.5t27.5 -1t12 -13.5q-22 -114 -79.5 -189.5t-183.5 -160.5q-29 -153 -76 -227.5t-116 -74.5q-39 0 -62.5 23
t-23.5 59q0 28 15 58t36 53.5t55 51.5t58.5 44.5t61.5 40.5l12 71q-38 -41 -102 -41q-32 0 -55 10t-36.5 29t-20.5 44t-7 59.5t3.5 69.5t11.5 80q26 145 72 209.5t126 64.5q30 0 55 -15.5t36 -42.5l8 43q2 9 11 9h37q11 0 9 -11l-96 -537q91 64 134 126.5t61 153.5zM275 277
v3l4 22q9 48 11 81t-3 62t-22 43.5t-46 14.5q-51 0 -84 -50t-54 -171q-7 -39 -10.5 -65.5t-5 -56t2 -48t11 -35t23 -24t37.5 -7.5q53 0 82.5 50.5t53.5 180.5zM86 -314q74 0 119 203q-70 -46 -112.5 -87.5t-42.5 -81.5q0 -10 4.5 -18t12.5 -12t19 -4z" />
    <glyph glyph-name="Hbar" unicode="&#x126;" horiz-adv-x="793" 
d="M883 296q27 0 25 -13q-22 -129 -84.5 -211t-140.5 -82q-125 0 -125 187q0 44 7 100q-5 -1 -10 -1q-13 -1 -29 -0.5t-27.5 1.5t-26.5 2t-27 2.5t-28 3t-30 2.5q-36 -148 -94.5 -223t-146.5 -75q-57 0 -90.5 38.5t-33.5 84.5q0 70 37 122.5t105.5 81.5t160.5 29h18
q5 25 10 54l9 50q-31 2 -56 3q-10 0 -9 11l7 36q1 9 11 9q27 -1 57 -3l41 235q-19 -7 -69.5 -21.5t-76.5 -24.5q-69 -27 -100.5 -72t-31.5 -110q0 -25 9 -46.5t26.5 -36.5t40.5 -17q11 -1 9 -11l-6 -37q-1 -9 -11 -9q-58 4 -91.5 46.5t-33.5 105.5q0 165 170 235
q30 12 71 24t66.5 20.5t34.5 17.5q4 5 12 5h38q11 0 9 -11l-52 -297q80 -6 120 -6q29 0 54 3l53 303q1 9 11 9h36q11 0 9 -11l-50 -289q12 4 22 10q9 4 13 -5l13 -30q4 -9 -3 -13q-23 -10 -55 -18l-15 -85q-3 -14 -5 -28q14 4 24.5 10.5t13.5 -2.5l12 -29q4 -10 -4 -15
q-18 -11 -54 -20q-8 -60 -8 -104q0 -135 79 -135q50 0 95.5 67.5t63.5 169.5q3 13 31 13zM557 332q8 0 16 1q3 17 6 36l13 74q-30 -4 -55 -4q-47 0 -120 6l-8 -46q-5 -29 -10 -56q23 -1 77 -6.5t81 -4.5zM155 45q63 0 104 62t71 182h-15q-61 0 -108.5 -15.5t-74 -40.5
t-39.5 -54t-13 -59q0 -28 21 -51.5t54 -23.5z" />
    <glyph glyph-name="hbar" unicode="&#x127;" horiz-adv-x="455" 
d="M510 296q7 0 13 -1.5t10 -5t3 -7.5q-27 -152 -72 -222t-119 -70q-52 0 -79 32.5t-27 92.5q0 28 6 61l42 241q3 15 3 29q0 69 -61 69q-40 0 -76.5 -30.5t-48.5 -72.5l-70 -403q-2 -9 -11 -9h-36q-11 0 -9 11l117 673h-28q-11 0 -9 11l7 38q1 9 10 9h30l11 59q1 9 11 9h36
q11 0 9 -11l-10 -57h79q11 0 9 -11l-6 -38q-2 -9 -11 -9h-81l-28 -159q51 46 115 46q51 0 79.5 -30t28.5 -83q0 -22 -4 -41l-42 -241q-4 -21 -4 -45q0 -40 15 -62.5t43 -22.5q43 0 72 55t53 181q3 14 30 14z" />
    <glyph glyph-name="Imacron" unicode="&#x12a;" horiz-adv-x="454" 
d="M325 867q-11 0 -9 11l6 38q2 9 11 9h226q11 0 9 -11l-6 -38q-2 -9 -11 -9h-226zM142 -11q-88 0 -138.5 62t-37.5 159q2 9 11 9h36q11 0 9 -13q-5 -47 10 -84t46.5 -57t72.5 -20q67 0 101.5 77t68.5 277l61 347q-16 -6 -60.5 -19t-72 -25t-62.5 -34.5t-57.5 -60.5
t-31.5 -91q-4 -23 -4 -49q0 -51 20 -83t56 -36q11 -2 9 -11l-6 -37q-1 -9 -11 -9q-59 4 -92 48.5t-33 117.5q0 33 5 59q8 46 26 84t41 63.5t51.5 46t56 33t56 22.5t51 16.5t40.5 14t25 14.5q4 5 12 5h38q11 0 9 -11l-71 -405q-1 -9 -5 -27q-12 -67 -19 -100.5t-20.5 -87.5
t-29 -81.5t-38 -58t-53 -43t-70.5 -12.5z" />
    <glyph glyph-name="imacron" unicode="&#x12b;" horiz-adv-x="218" 
d="M1 608q-11 0 -9 11l6 38q2 9 11 9h226q11 0 9 -11l-6 -38q-2 -9 -11 -9h-226zM243 282q3 14 30 14q7 0 13.5 -1.5t10 -5t2.5 -7.5q-27 -151 -72 -221.5t-119 -70.5q-52 0 -79.5 32.5t-27.5 93.5q0 27 6 60l61 365q1 9 11 9h37q11 0 9 -11l-61 -363q-5 -27 -5 -45
q0 -40 15.5 -62.5t43.5 -22.5q29 0 51 24t40 76t34 136z" />
    <glyph glyph-name="Iogonek" unicode="&#x12e;" horiz-adv-x="454" 
d="M439 815q11 0 9 -11l-71 -405q-1 -9 -5 -27l-10.5 -60t-11 -56t-13 -55.5t-15 -49t-18 -46t-21 -37.5t-26 -33.5t-30.5 -23.5t-37 -16q-26 -31 -35 -42t-21.5 -27.5t-17 -25.5t-5.5 -17q-5 -30 29 -30q11 0 21 7q8 6 14 -2l16 -22q6 -7 1 -12q-26 -27 -62 -27
q-41 0 -61.5 23.5t-13.5 62.5q7 37 75 106q-83 5 -130 66.5t-34 154.5q2 9 11 9h36q11 0 9 -13q-5 -47 10 -84t46.5 -57t72.5 -20q67 0 101.5 77t68.5 277l61 347q-16 -6 -60.5 -19t-72 -25t-62.5 -34.5t-57.5 -60.5t-31.5 -91q-4 -23 -4 -49q0 -51 20 -83t56 -36
q11 -2 9 -11l-6 -37q-1 -9 -11 -9q-59 4 -92 48.5t-33 117.5q0 33 5 59q8 46 26 84t41 63.5t51.5 46t56 33t56 22.5t51 16.5t40.5 14t25 14.5q4 5 12 5h38z" />
    <glyph glyph-name="iogonek" unicode="&#x12f;" horiz-adv-x="218" 
d="M109 618q-20 0 -25.5 9.5t-0.5 34.5q4 25 13 34t29 9q19 0 25 -9t1 -34t-13.5 -34.5t-28.5 -9.5zM273 296q11 0 19 -4t7 -10q-21 -118 -52.5 -186t-78.5 -92q-4 -4 -10 -12q-43 -51 -57.5 -71.5t-17.5 -35.5q-4 -30 29 -30q11 0 21 7q9 6 14 -2l17 -22q5 -7 0 -12
q-26 -27 -62 -27q-41 0 -61.5 23.5t-13.5 62.5q7 37 74 105q-49 2 -74.5 34.5t-25.5 91.5q0 27 6 60l61 365q2 9 11 9h37q11 0 9 -11l-61 -363q-5 -27 -5 -45q0 -40 15.5 -62.5t43.5 -22.5q43 0 72.5 55.5t52.5 180.5q3 14 30 14z" />
    <glyph glyph-name="Idotaccent" unicode="&#x130;" horiz-adv-x="454" 
d="M433 877q-20 0 -25.5 9.5t-0.5 34.5q4 25 13 34t29 9q19 0 25 -9t1 -34t-13.5 -34.5t-28.5 -9.5zM142 -11q-88 0 -138.5 62t-37.5 159q2 9 11 9h36q11 0 9 -13q-5 -47 10 -84t46.5 -57t72.5 -20q67 0 101.5 77t68.5 277l61 347q-16 -6 -43 -14t-48.5 -15t-48.5 -18
t-48 -26t-41 -36t-34 -52t-21 -69q-4 -23 -4 -49q0 -51 20 -83t56 -36q11 -2 9 -11l-6 -37q-1 -9 -11 -9q-59 4 -92 48.5t-33 117.5q0 33 5 59q8 46 26 84t41 63.5t51.5 46t56.5 33t56 22.5t50.5 16.5t40.5 14t25 14.5q4 5 12 5h38q11 0 9 -11l-71 -405q-1 -9 -5 -27
q-12 -67 -19 -100.5t-20.5 -87.5t-29 -81.5t-38 -58t-53 -43t-70.5 -12.5z" />
    <glyph glyph-name="dotlessi" unicode="&#x131;" horiz-adv-x="218" 
d="M243 282q3 14 30 14q11 0 19 -4t7 -10q-27 -151 -72 -221.5t-119 -70.5q-52 0 -79.5 32.5t-27.5 93.5q0 27 6 60l61 365q2 9 11 9h37q11 0 9 -11l-61 -363q-5 -27 -5 -45q0 -40 15.5 -62.5t43.5 -22.5q43 0 72.5 55.5t52.5 180.5z" />
    <glyph glyph-name="Kcommaaccent" unicode="&#x136;" horiz-adv-x="791" 
d="M816 282q2 14 32 13q25 -1 24 -13q-28 -161 -71.5 -226.5t-119.5 -65.5q-46 0 -77.5 19.5t-46.5 50.5t-23.5 68.5t-14.5 75t-15 69t-28 51.5t-50 21h-16q-7 -39 -11 -59.5t-12 -56t-14.5 -55.5t-18 -49.5t-22.5 -46t-27.5 -36t-35.5 -29.5t-43 -17t-52 -7
q-81 0 -130 62.5t-35 158.5q1 9 10 9h36q11 0 9 -13q-8 -70 27.5 -115.5t91.5 -45.5q74 0 109.5 72t65.5 252l67 382q-16 -7 -50.5 -18.5t-58.5 -20t-56 -26.5t-53.5 -38.5t-40 -54.5t-26.5 -77q-4 -23 -4 -49q0 -34 9 -60t26 -41.5t41 -17.5q11 -2 9 -11l-6 -37
q-1 -9 -11 -9q-59 4 -92 48.5t-33 117.5q0 33 5 59q6 36 19.5 67t30.5 54.5t38 43.5t43 34t45.5 26.5t45.5 20t43 14.5t37 11.5t28.5 9.5t17.5 9q8 6 12 6h37q9 0 9 -7v-4l-71 -402h17q41 0 75.5 43t60 104.5t52.5 123.5t65.5 105t85.5 43q46 0 75 -27q5 -6 -2 -14l-27 -28
q-6 -7 -14 1q-12 12 -42 12q-24 0 -46 -30.5t-42.5 -78.5t-42 -99t-52.5 -101.5t-67 -76.5q29 -22 44.5 -64.5t21.5 -86.5t15 -85.5t32 -67.5t63 -26q45 0 73.5 52t51.5 184zM390 -50q26 10 37 -15q7 -15 2 -44q-5 -30 -22.5 -54.5t-41.5 -35.5q-5 -2 -10 2t-8 10t0 9
q35 47 23 93q-3 10 3.5 20.5t16.5 14.5z" />
    <glyph glyph-name="kcommaaccent" unicode="&#x137;" horiz-adv-x="420" 
d="M445 282q2 10 17 14t28 -0.5t11 -13.5q-26 -149 -76 -220.5t-133 -71.5q-79 0 -118.5 71t-45.5 217q-22 -3 -47 -4l-46 -264q-2 -9 -11 -9h-38q-11 0 -9 11l139 789q1 9 11 9h37q11 0 9 -11l-82 -469q78 3 125.5 52.5t67.5 158.5q1 9 11 9l36 -1q11 0 8 -13
q-23 -98 -59.5 -156.5t-94.5 -84.5q10 -249 115 -249q54 0 89 56.5t56 179.5zM99 -50q26 10 37 -15q8 -15 2 -44q-3 -20 -12.5 -38t-22.5 -31t-29 -21q-7 -3 -14.5 6.5t-3.5 14.5q35 47 23 93q-2 7 0.5 14t8 12.5t11.5 8.5z" />
    <glyph glyph-name="Lacute" unicode="&#x139;" horiz-adv-x="467" 
d="M368 880q-4 0 -5.5 4.5t0.5 8.5l38 95q2 5 13 5h50q5 0 6 -4t-2 -9l-59 -97q-3 -4 -13 -4zM494 294q4 21 31 22q23 1 25 -15v-7q-29 -162 -74 -234t-120 -72q-26 0 -50.5 6t-52 22.5t-39 24.5t-43.5 30q-56 -80 -140 -80q-45 0 -71 27.5t-22 66.5q5 50 39 74t85 24
q46 0 97 -29q32 75 65 259q4 20 8 46t8.5 52.5t7.5 46.5q-21 -3 -42 -3q-86 0 -134 39t-48 107q0 8 2 28q0 9 10 9h36q11 0 9 -11q-1 -6 -1 -16q0 -48 35.5 -74t100.5 -26q21 0 42 3q10 48 21 82.5t27 64.5t38.5 45.5t51.5 15.5q34 0 52.5 -19.5t18.5 -53.5q0 -57 -44 -105
t-113 -72q-12 -56 -30 -159q-35 -196 -78 -287q6 -4 26 -19t27.5 -20t25.5 -16t29 -15t26.5 -8t29.5 -4q44 0 74.5 58.5t53.5 191.5zM388 766q-10 0 -18 -7t-16 -23t-15.5 -41t-16.5 -62q40 17 64 45t24 62q0 26 -22 26zM40 48q53 0 90 52q-44 27 -78 27q-17 0 -29.5 -4.5
t-20.5 -14t-8 -23.5q-1 -37 46 -37z" />
    <glyph glyph-name="lacute" unicode="&#x13a;" horiz-adv-x="235" 
d="M152 869q-4 0 -5.5 4.5t0.5 8.5l38 95q2 5 13 5h50q5 0 6 -4t-2 -9l-59 -97q-2 -4 -13 -4zM260 282q3 13 29 13q12 0 20.5 -3.5t6.5 -9.5q-28 -148 -75.5 -217.5t-126.5 -69.5q-112 0 -112 130q0 32 6 67l108 610q2 9 11 9h37q11 0 9 -11l-108 -608q-5 -28 -5 -51
q0 -90 64 -90q48 0 80 54.5t56 176.5z" />
    <glyph glyph-name="Lcommaaccent" unicode="&#x13b;" horiz-adv-x="467" 
d="M494 294q4 21 31 22q23 1 25 -15v-7q-29 -162 -74 -234t-120 -72q-26 0 -50.5 6t-52 22.5t-39 24.5t-43.5 31q-56 -81 -140 -81q-45 0 -71 27.5t-22 66.5q5 50 39 74t85 24q46 0 97 -29q32 75 65 259q4 20 8 46t8.5 52.5t7.5 46.5q-21 -3 -42 -3q-86 0 -134 39t-48 107
q0 8 2 28q0 9 10 9h36q11 0 9 -11q-1 -6 -1 -16q0 -48 35.5 -74t100.5 -26q21 0 42 3q10 48 21 82.5t27 64.5t38.5 45.5t51.5 15.5q34 0 52.5 -19.5t18.5 -53.5q0 -57 -44 -105t-113 -72q-12 -56 -30 -159q-35 -196 -78 -287q6 -4 26 -19t27.5 -20t25.5 -16t29 -15t26.5 -8
t29.5 -4q44 0 74.5 58.5t53.5 191.5zM388 766q-10 0 -18 -7t-16 -23t-15.5 -41t-16.5 -62q40 17 64 45t24 62q0 26 -22 26zM40 48q53 0 90 52q-44 27 -78 27q-26 0 -41.5 -11t-16.5 -31q-1 -37 46 -37zM192 -50q26 10 37 -15q7 -15 2 -44q-5 -31 -22.5 -55t-41.5 -35
q-7 -3 -14.5 6t-3.5 15q35 47 23 93q-3 10 3.5 20.5t16.5 14.5z" />
    <glyph glyph-name="lcommaaccent" unicode="&#x13c;" horiz-adv-x="235" 
d="M260 282q3 13 29 13q12 0 20.5 -3.5t6.5 -9.5q-28 -148 -75.5 -217.5t-126.5 -69.5q-112 0 -112 130q0 33 6 67l108 610q2 9 11 9h37q11 0 9 -11l-108 -608q-5 -28 -5 -51q0 -90 64 -90q48 0 80 54.5t56 176.5zM98 -207q-7 -3 -14.5 6.5t-3.5 14.5q35 47 23 93
q-2 7 0.5 14t8 12.5t11.5 8.5q26 10 37 -15q8 -15 2 -44q-5 -31 -22.5 -55t-41.5 -35z" />
    <glyph glyph-name="Lcaron" unicode="&#x13d;" horiz-adv-x="467" 
d="M494 294q4 21 31 22q23 1 25 -15v-7q-29 -162 -74 -234t-120 -72q-26 0 -50.5 6t-52 22.5t-39 24.5t-43.5 31q-56 -81 -140 -81q-45 0 -71 27.5t-22 66.5q5 50 39 74t85 24q46 0 97 -29q32 75 65 259q4 20 8 46t8.5 52.5t7.5 46.5q-21 -3 -42 -3q-86 0 -134 39t-48 107
q0 8 2 28q0 9 10 9h36q11 0 9 -11q-1 -6 -1 -16q0 -48 35.5 -74t100.5 -26q21 0 42 3q10 48 21 82.5t27 64.5t38.5 45.5t51.5 15.5q34 0 52.5 -19.5t18.5 -53.5q0 -57 -44 -105t-113 -72q-12 -56 -30 -159q-35 -196 -78 -287q6 -4 26 -19t27.5 -20t25.5 -16t29 -15t26.5 -8
t29.5 -4q44 0 74.5 58.5t53.5 191.5zM611 794q7 -15 2 -44q-5 -31 -23 -55t-42 -35q-6 -3 -13.5 6.5t-3.5 14.5q35 47 23 93q-3 10 3.5 20.5t16.5 14.5q26 10 37 -15zM388 766q-13 0 -23.5 -13t-20.5 -42t-22 -78q20 8 35.5 19.5t27.5 24.5t18.5 29.5t6.5 33.5q0 26 -22 26z
M40 48q53 0 90 52q-44 27 -78 27q-17 0 -29.5 -4.5t-20.5 -14t-8 -23.5q-1 -37 46 -37z" />
    <glyph glyph-name="lcaron" unicode="&#x13e;" horiz-adv-x="235" 
d="M260 282q3 13 29 13q12 0 20.5 -3.5t6.5 -9.5q-28 -148 -75.5 -217.5t-126.5 -69.5q-112 0 -112 130q0 33 6 67l108 610q2 9 11 9h37q11 0 9 -11l-108 -608q-5 -28 -5 -51q0 -90 64 -90q48 0 80 54.5t56 176.5zM223 629q-6 -3 -14 6.5t-4 14.5q36 47 24 93
q-3 10 3.5 20.5t16.5 14.5q25 10 37 -15q7 -15 2 -44q-6 -31 -23.5 -55t-41.5 -35z" />
    <glyph glyph-name="Lslash" unicode="&#x141;" horiz-adv-x="467" 
d="M494 294q4 21 31 22q23 1 25 -15q1 -3 0 -7q-29 -162 -74 -234t-120 -72q-26 0 -50.5 6t-52 22.5t-39 24.5t-43.5 31q-56 -81 -140 -81q-45 0 -71 27.5t-22 66.5q5 50 39 74t85 24q46 0 97 -29q29 67 55 204l-43 -18q-9 -4 -13 6l-12 32q-3 9 6 13l74 32q4 22 11 67.5
t11 67.5q-21 -3 -42 -3q-86 0 -134 39t-48 107q0 8 2 28q0 9 10 9h36q11 0 9 -11q-1 -6 -1 -16q0 -48 35.5 -74t100.5 -26q21 0 42 3q8 38 16 66.5t20 56t26 45.5t33.5 29t42.5 11q34 0 52.5 -19.5t18.5 -53.5q0 -57 -44 -105t-113 -72q-10 -48 -24 -123l45 19q9 4 13 -6
l12 -32q3 -9 -6 -13l-75 -32q-32 -173 -73 -259q6 -4 26 -19t27.5 -20t25.5 -16t29 -15t26.5 -8t29.5 -4q44 0 74.5 58.5t53.5 191.5zM388 766q-8 0 -14.5 -4.5t-13 -14t-13 -25.5t-12.5 -38t-13 -51q20 8 35.5 19.5t27.5 24.5t18.5 29.5t6.5 33.5q0 26 -22 26zM40 48
q53 0 90 52q-44 27 -78 27q-17 0 -29.5 -4.5t-20.5 -14t-8 -23.5q-1 -37 46 -37z" />
    <glyph glyph-name="lslash" unicode="&#x142;" horiz-adv-x="235" 
d="M289 295q12 0 20.5 -3.5t6.5 -9.5q-28 -148 -75.5 -217.5t-126.5 -69.5q-112 0 -112 130q0 32 6 67l56 313l-46 -20q-10 -4 -13 6l-12 32q-4 9 5 13l77 33l41 233q2 9 11 9h37q11 0 9 -11l-36 -204l40 17q9 4 13 -6l12 -32q3 -9 -6 -13l-70 -30l-61 -340q-5 -28 -5 -51
q0 -90 64 -90q48 0 80 54.5t56 176.5q3 13 29 13z" />
    <glyph glyph-name="Nacute" unicode="&#x143;" horiz-adv-x="548" 
d="M306 870q-4 0 -5.5 4.5t0.5 8.5l38 95q2 5 13 5h50q5 0 6 -4t-2 -9l-59 -97q-3 -4 -13 -4zM572 282q3 14 32 13q25 -1 24 -13q-28 -161 -71 -226.5t-120 -65.5q-52 0 -80 37.5t-28 96.5q0 39 14.5 122.5t35 183.5t22.5 112q20 114 1 165.5t-80.5 51.5t-113.5 -47
t-75 -143l-98 -559q-2 -9 -11 -9h-38q-11 0 -9 11l139 789q1 9 11 9h37q11 0 9 -11l-14 -83q65 99 170 99q86 0 119.5 -70.5t8.5 -205.5q-1 -9 -21 -106.5t-34 -180t-14 -120.5q0 -39 15.5 -62.5t44.5 -23.5q44 0 72.5 52t51.5 184z" />
    <glyph glyph-name="nacute" unicode="&#x144;" horiz-adv-x="456" 
d="M243 615q-4 0 -5.5 4.5t0.5 8.5l38 95q2 5 13 5h50q5 0 6 -4t-2 -9l-59 -97q-3 -4 -13 -4zM481 282q2 10 16.5 14.5t28 0t11.5 -14.5q-18 -101 -43 -164.5t-61.5 -95.5t-86.5 -32q-103 0 -103 130q0 43 8 86l35 201q3 15 3 30q0 68 -60 68q-42 0 -81 -40t-51 -92
l-63 -364q-2 -9 -11 -9h-36q-11 0 -9 11l92 530q1 9 11 9h36q11 0 9 -11l-6 -33q54 55 118 55q51 0 79.5 -30.5t28.5 -83.5q0 -21 -4 -40l-35 -201q-7 -39 -7 -72q0 -88 56 -88q44 0 73.5 56t51.5 180z" />
    <glyph glyph-name="Ncommaaccent" unicode="&#x145;" horiz-adv-x="548" 
d="M573 282q2 14 31 13q25 -1 24 -13q-28 -161 -71 -226.5t-119 -65.5q-53 0 -80.5 37.5t-27.5 96.5q0 39 14 122.5t34.5 183.5t22.5 112q20 114 1 165.5t-81 51.5q-39 0 -75 -18.5t-66.5 -62.5t-46.5 -109l-98 -559q-2 -9 -11 -9h-38q-11 0 -9 11l139 789q1 9 11 9h37
q11 0 9 -11l-14 -83q65 99 170 99q86 0 119.5 -70.5t8.5 -205.5q-2 -15 -15 -77.5t-24 -119t-20.5 -119t-9.5 -91.5q0 -39 15.5 -62.5t44.5 -23.5q44 0 72.5 52t52.5 184zM178 -50q26 10 37 -15q7 -15 2 -44q-5 -30 -22.5 -54.5t-41.5 -35.5q-7 -3 -14.5 6.5t-3.5 14.5
q35 47 23 93q-3 10 3.5 20.5t16.5 14.5z" />
    <glyph glyph-name="ncommaaccent" unicode="&#x146;" horiz-adv-x="456" 
d="M481 282q2 10 16.5 14.5t28 0t11.5 -14.5q-18 -101 -43 -164.5t-61.5 -95.5t-86.5 -32q-103 0 -103 130q0 43 8 86l35 201q3 15 3 30q0 68 -60 68q-42 0 -81 -40t-51 -92l-63 -364q-2 -9 -11 -9h-36q-11 0 -9 11l92 530q1 9 11 9h36q11 0 9 -11l-6 -33q54 55 118 55
q51 0 79.5 -30.5t28.5 -83.5q0 -21 -4 -40l-35 -201q-7 -39 -7 -72q0 -88 56 -88q44 0 73.5 56t51.5 180zM150 -50q25 10 37 -15q7 -15 2 -44q-5 -30 -23 -54.5t-42 -35.5q-6 -3 -13.5 6.5t-3.5 14.5q35 47 23 93q-2 7 0.5 14t7.5 12.5t12 8.5z" />
    <glyph glyph-name="Ncaron" unicode="&#x147;" horiz-adv-x="548" 
d="M265 876l-36 99q-5 12 9 12h30q7 0 11 -6l34 -58l54 58q6 6 13 6h30q14 0 5 -12l-71 -99q-6 -7 -14 -7h-54q-8 0 -11 7zM572 282q3 14 32 13q25 -1 24 -13q-28 -161 -71 -226.5t-120 -65.5q-52 0 -80 37.5t-28 96.5q0 39 14.5 122.5t35 183.5t22.5 112q20 114 1 165.5
t-81 51.5q-39 0 -75 -18.5t-66.5 -62.5t-46.5 -109l-98 -559q-2 -9 -11 -9h-38q-11 0 -9 11l139 789q1 9 11 9h37q11 0 9 -11l-14 -83q65 99 170 99q86 0 119.5 -70.5t8.5 -205.5q-2 -15 -15 -77.5t-24 -119t-21 -119t-10 -91.5q0 -39 16 -62.5t44 -23.5q45 0 73.5 52
t51.5 184z" />
    <glyph glyph-name="ncaron" unicode="&#x148;" horiz-adv-x="456" 
d="M202 621l-36 99q-5 12 9 12h30q7 0 11 -6l34 -58l54 58q5 6 13 6h30q13 0 5 -12l-72 -99q-5 -7 -13 -7h-54q-8 0 -11 7zM481 282q2 10 16.5 14.5t28 0t11.5 -14.5q-27 -151 -72 -221.5t-119 -70.5q-103 0 -103 130q0 43 8 86l35 201q3 15 3 30q0 68 -60 68q-42 0 -81 -40
t-51 -92l-63 -364q-2 -9 -11 -9h-36q-11 0 -9 11l92 530q1 9 11 9h36q11 0 9 -11l-6 -33q54 55 118 55q51 0 79.5 -30.5t28.5 -83.5q0 -21 -4 -40l-35 -201q-7 -39 -7 -72q0 -88 56 -88q44 0 73.5 56t51.5 180z" />
    <glyph glyph-name="Omacron" unicode="&#x14c;" horiz-adv-x="501" 
d="M258 868q-11 0 -9 11l6 38q2 9 11 9h226q11 0 9 -11l-6 -38q-2 -9 -11 -9h-226zM275 345q10 -2 8 -11l-6 -37q-1 -9 -11 -9q-55 4 -84 47t-29 121q0 49 8 100t25.5 99t41.5 85.5t59 60t75 22.5q43 0 70.5 -20.5t41 -63t13.5 -109.5q0 -87 -10.5 -174t-34 -172t-58.5 -150
t-88 -105t-118 -40q-176 0 -176 228q0 135 44 300.5t114 242.5q6 8 14 0l21 -22q6 -8 1 -14q-40 -46 -72.5 -141t-48.5 -190.5t-16 -167.5q0 -64 15 -104.5t43 -58t70 -17.5q50 0 92 39.5t69.5 101.5t46.5 140t27.5 153t8.5 143q0 50 -9 82.5t-26 47.5t-44 15
q-34 0 -62 -31.5t-45 -79t-26 -98.5t-9 -94q0 -111 65 -119z" />
    <glyph glyph-name="omacron" unicode="&#x14d;" horiz-adv-x="391" 
d="M132 613q-11 0 -9 11l6 38q2 9 11 9h226q11 0 9 -11l-6 -38q-2 -9 -11 -9h-226zM129 -10q-62 0 -90.5 36t-28.5 114q0 58 15 142q17 98 43 158t65 89.5t96 29.5q60 0 88 -35.5t28 -111.5q0 -53 -14 -135q-27 -151 -73.5 -219t-128.5 -68zM139 46q53 0 83.5 51t52.5 180
q15 81 15 130q0 52 -17 74t-54 22q-56 0 -86 -48t-52 -173q-15 -87 -15 -138q0 -53 17 -75.5t56 -22.5z" />
    <glyph glyph-name="Ohungarumlaut" unicode="&#x150;" horiz-adv-x="501" 
d="M297 869q-14 0 -7 12l54 99q3 7 12 7h53q15 0 6 -12l-76 -100q-5 -6 -12 -6h-30zM417 869q-14 0 -7 12l54 99q3 7 12 7h53q15 0 6 -12l-76 -100q-5 -6 -12 -6h-30zM275 345q10 -2 8 -11l-6 -37q-1 -9 -11 -9q-113 8 -113 168q0 85 22.5 166.5t71.5 141t115 59.5
q65 0 95 -46.5t30 -146.5q0 -111 -17.5 -219t-52.5 -205t-97 -157t-142 -60q-176 0 -176 228q0 135 44 300.5t114 242.5q6 8 14 0l21 -22q6 -8 1 -14q-59 -68 -98 -225.5t-39 -273.5q0 -95 32 -137.5t96 -42.5q62 0 111 59t76.5 150t42 186.5t14.5 181.5q0 145 -79 145
q-34 0 -62 -31.5t-45 -79t-26 -98.5t-9 -94q0 -111 65 -119z" />
    <glyph glyph-name="ohungarumlaut" unicode="&#x151;" horiz-adv-x="391" 
d="M171 614q-14 0 -7 12l54 99q3 7 12 7h53q15 0 6 -12l-76 -100q-5 -6 -12 -6h-30zM291 614q-14 0 -7 12l54 99q3 7 12 7h53q15 0 6 -12l-76 -100q-5 -6 -12 -6h-30zM129 -10q-62 0 -90.5 36t-28.5 114q0 58 15 142q26 146 73 211.5t131 65.5q60 0 88 -35.5t28 -111.5
q0 -53 -14 -135q-27 -151 -73.5 -219t-128.5 -68zM139 46q53 0 83.5 51t52.5 180q15 81 15 130q0 52 -17 74t-54 22q-56 0 -86 -48t-52 -173q-15 -87 -15 -138q0 -53 17 -75.5t56 -22.5z" />
    <glyph glyph-name="OE" unicode="&#x152;" horiz-adv-x="962" 
d="M275 345q10 -2 8 -11l-6 -37q-1 -9 -11 -9q-113 8 -113 168q0 85 22.5 166.5t71.5 141t115 59.5q65 0 95 -46.5t30 -146.5q0 -111 -17.5 -219t-52.5 -205t-97 -157t-142 -60q-176 0 -176 228q0 135 44 300.5t114 242.5q6 8 14 0l21 -22q6 -8 1 -14q-59 -68 -98 -225.5
t-39 -273.5q0 -95 32 -137.5t96 -42.5q62 0 111 59t76.5 150t42 186.5t14.5 181.5q0 145 -79 145q-34 0 -62 -31.5t-45 -79t-26 -98.5t-9 -94q0 -111 65 -119zM744 -15q-123 0 -187 57t-64 161q0 88 46.5 152.5t129.5 90.5q-23 15 -39 54t-17 84q-2 98 52.5 166t144.5 68
q45 0 75.5 -15t43.5 -40t16.5 -57t-6.5 -67q-2 -9 -11 -8l-35 2q-11 1 -8 12q5 20 3.5 41t-8 37.5t-25.5 27.5t-47 11q-66 0 -103.5 -53t-35.5 -125q1 -46 22 -77t56 -41q6 -2 29 -5q12 -2 10 -11l-6 -36q-1 -8 -10 -8q-19 0 -30 -1q-91 -8 -140.5 -62t-49.5 -140
q0 -78 52.5 -120t141.5 -42q85 0 154.5 66.5t88.5 174.5q2 10 16.5 14.5t27.5 0t12 -14.5q-25 -137 -108.5 -217t-190.5 -80z" />
    <glyph glyph-name="oe" unicode="&#x153;" horiz-adv-x="763" 
d="M129 -10q-62 0 -90.5 36t-28.5 114q0 58 15 142q26 146 73 211.5t131 65.5q60 0 88 -35.5t28 -111.5q0 -53 -14 -135q-27 -151 -73.5 -219t-128.5 -68zM581 -10q-86 0 -131 50t-45 138q0 42 9 93q50 284 199 284q51 0 79 -30.5t28 -83.5q0 -27 -5 -48q-8 -36 -24 -61.5
t-35 -40t-52.5 -23.5t-61 -12t-75.5 -6q-5 -37 -5 -61q0 -66 33.5 -104.5t96.5 -38.5q155 0 196 236q3 14 32 14q11 0 18 -3.5t6 -10.5q-26 -146 -90 -219t-173 -73zM139 46q53 0 83.5 51t52.5 180q15 81 15 130q0 52 -17 74t-54 22q-56 0 -86 -48t-52 -173
q-15 -87 -15 -138q0 -53 17 -75.5t56 -22.5zM478 307q44 2 62.5 3.5t44.5 6.5t37 14t21.5 24t15.5 39q4 16 4 34q0 33 -16 52t-44 19q-86 0 -125 -192z" />
    <glyph glyph-name="Racute" unicode="&#x154;" horiz-adv-x="662" 
d="M394 870q-4 0 -5.5 4.5t0.5 8.5l38 95q2 5 13 5h50q5 0 6 -4t-2 -9l-59 -97q-3 -4 -13 -4zM532 46q63 0 97 51.5t58 184.5q2 13 32 13q25 -1 24 -13q-29 -162 -78 -227t-143 -65q-47 0 -79 19t-45 47.5t-22 63t-13 65t-14.5 53t-28.5 27.5q-10 2 -8 11l6 37q2 9 11 9
q70 2 118.5 24.5t78.5 69.5t43 120q7 36 7 72q0 160 -195 160q-114 0 -185.5 -56.5t-90.5 -161.5q-5 -26 -5 -60q0 -57 20 -93.5t56 -41.5q10 -2 8 -11l-6 -37q-2 -9 -11 -9q-58 4 -91 54t-33 128q0 34 6 70q23 129 113.5 201.5t228.5 72.5q116 0 179 -52t63 -154
q0 -34 -8 -82q-20 -111 -74.5 -175.5t-152.5 -87.5q13 -19 20.5 -51.5t12.5 -61t14 -55.5t30.5 -43t56.5 -16zM54 -11q-81 0 -130 62.5t-35 158.5q1 9 10 9h36q11 0 9 -13q-8 -70 27.5 -115.5t91.5 -45.5q74 0 110 76t70 278q3 13 7 39q6 38 9.5 57t9.5 50.5t11 47t12.5 38
t15.5 33.5t18.5 23.5t23.5 18t28 7.5q10 0 10 -10l2 -36q0 -10 -9 -11q-25 -6 -38.5 -49.5t-34.5 -158.5q-6 -32 -9 -49q-1 -9 -4 -26q-11 -57 -16.5 -86t-17.5 -78t-23 -74t-29 -58t-39 -49t-50.5 -27.5t-65.5 -11.5z" />
    <glyph glyph-name="racute" unicode="&#x155;" horiz-adv-x="399" 
d="M228 610q-4 0 -5.5 4.5t0.5 8.5l38 95q2 5 13 5h50q5 0 6 -4t-2 -9l-59 -97q-3 -4 -13 -4zM424 282q2 14 32 13q24 -1 24 -13q-27 -152 -71 -222t-118 -70q-52 0 -79.5 32.5t-27.5 93.5q0 31 25.5 169.5t25.5 153.5q0 18 -11.5 32t-25 21t-38 18.5t-35.5 17.5
q-8 -48 -24 -135.5t-20 -110.5q-2 -14 -32 -13q-25 1 -24 13q31 168 56 320q2 11 12 9l36 -4q8 -1 9 -10q2 -10 11 -18.5t23 -15t30 -13.5t32 -15.5t29 -19.5t21 -27.5t8 -37.5q0 -23 -25 -157t-25 -161q0 -40 15.5 -63t43.5 -23q43 0 72.5 55t50.5 181z" />
    <glyph glyph-name="Rcommaaccent" unicode="&#x156;" horiz-adv-x="662" 
d="M532 46q63 0 97 51.5t58 184.5q2 14 32 13q25 -1 24 -13q-29 -162 -78 -227t-143 -65q-47 0 -79 19t-45 47.5t-22 63t-13 65t-14.5 53t-28.5 27.5q-10 2 -8 11l6 37q2 9 11 9q70 2 118.5 24.5t78.5 69.5t43 120q7 36 7 72q0 160 -195 160q-114 0 -185.5 -56.5
t-90.5 -161.5q-5 -26 -5 -60q0 -57 20 -93.5t56 -41.5q10 -2 8 -11l-6 -37q-2 -9 -11 -9q-58 4 -91 54t-33 128q0 34 6 70q23 129 113.5 201.5t228.5 72.5q116 0 179 -52t63 -154q0 -34 -8 -82q-20 -111 -74.5 -175.5t-152.5 -87.5q10 -14 16 -35.5t10 -42t8 -43t11 -41
t17 -33.5t28.5 -23.5t43.5 -8.5zM54 -11q-81 0 -130 62.5t-35 158.5q1 9 10 9h36q11 0 9 -13q-8 -70 27.5 -115.5t91.5 -45.5q74 0 110 76t70 278q3 13 7 39q6 38 9.5 57t9.5 50.5t11 47t12.5 38t15.5 34t18.5 23.5t23.5 17.5t28 7.5q10 0 10 -10l2 -36q0 -10 -9 -11
q-25 -6 -38.5 -49.5t-34.5 -158.5q-6 -32 -9 -49q-1 -9 -4 -26q-11 -57 -16.5 -86t-17.5 -78t-23 -74t-29 -58t-39 -49t-50.5 -27.5t-65.5 -11.5zM264 -199q-7 -3 -14.5 6.5t-3.5 14.5q35 47 23 93q-3 10 3.5 20.5t16.5 14.5q26 10 37 -15q7 -15 2 -44q-5 -31 -22.5 -55
t-41.5 -35z" />
    <glyph glyph-name="rcommaaccent" unicode="&#x157;" horiz-adv-x="399" 
d="M424 282q2 14 32 13q24 -1 24 -13q-27 -152 -71 -222t-118 -70q-52 0 -79.5 32.5t-27.5 93.5q0 31 25.5 169.5t25.5 153.5q0 18 -11.5 32t-25 21t-38 18.5t-35.5 17.5q-8 -48 -24 -135.5t-20 -110.5q-2 -14 -32 -13q-25 1 -24 13q31 168 56 320q2 11 12 9l36 -4
q8 -1 9 -10q3 -16 27.5 -30t52.5 -24t51 -34t23 -59q0 -23 -25 -157t-25 -161q0 -40 15.5 -63t43.5 -23q43 0 72.5 55t50.5 181zM255 -209q-7 -3 -14.5 6.5t-3.5 14.5q35 47 23 93q-3 10 3.5 20.5t16.5 14.5q26 10 37 -15q7 -15 2 -44q-5 -31 -22.5 -55t-41.5 -35z" />
    <glyph glyph-name="Rcaron" unicode="&#x158;" horiz-adv-x="662" 
d="M364 869q-8 0 -11 7l-36 99q-5 12 9 12h30q7 0 11 -6l34 -58l54 58q6 6 13 6h30q14 0 5 -12l-72 -99q-5 -7 -13 -7h-54zM532 46q63 0 97 51.5t58 184.5q2 14 32 13q25 -1 24 -13q-29 -162 -78 -227t-143 -65q-47 0 -79 19t-45 47.5t-22 63t-13 65t-14.5 53t-28.5 27.5
q-10 2 -8 11l6 37q2 9 11 9q70 2 118.5 24.5t78.5 69.5t43 120q7 36 7 72q0 160 -195 160q-114 0 -185.5 -56.5t-90.5 -161.5q-5 -26 -5 -60q0 -57 20 -93.5t56 -41.5q10 -2 8 -11l-6 -37q-2 -9 -11 -9q-58 4 -91 54t-33 128q0 34 6 70q23 129 113.5 201.5t228.5 72.5
q116 0 179 -52t63 -154q0 -34 -8 -82q-20 -111 -74.5 -175.5t-152.5 -87.5q10 -14 16 -35.5t10 -42t8 -43t11 -41t17 -33.5t28.5 -23.5t43.5 -8.5zM54 -11q-81 0 -130 62.5t-36 158.5q2 9 11 9h36q11 0 9 -13q-8 -70 27.5 -115.5t91.5 -45.5q74 0 110 76t70 278q3 13 7 39
q6 38 9.5 57t9.5 50.5t11 47t12.5 38t15.5 34t18.5 23.5t23.5 17.5t28 7.5q10 0 10 -10l2 -36q0 -10 -9 -11q-25 -6 -38.5 -49.5t-34.5 -158.5q-6 -32 -9 -49q-1 -9 -4 -26q-11 -57 -16.5 -86t-17.5 -78t-23 -74t-29 -58t-39 -49t-50.5 -27.5t-65.5 -11.5z" />
    <glyph glyph-name="rcaron" unicode="&#x159;" horiz-adv-x="399" 
d="M198 609q-8 0 -11 7l-36 99q-5 12 9 12h30q7 0 11 -6l34 -58l54 58q6 6 13 6h30q14 0 5 -12l-72 -99q-5 -7 -13 -7h-54zM424 282q2 14 32 13q24 -1 24 -13q-27 -152 -71.5 -222t-117.5 -70q-52 0 -79.5 32.5t-27.5 93.5q0 31 25.5 169.5t25.5 153.5q0 18 -11.5 32t-25 21
t-38 18.5t-35.5 17.5q-6 -36 -13.5 -78t-16.5 -90t-14 -78q-2 -14 -32 -13q-25 1 -24 13q31 168 56 320q2 11 12 9l36 -4q8 -1 9 -10q2 -10 11 -18.5t23 -15t30 -13.5t32 -15.5t29 -19.5t21 -27.5t8 -37.5q0 -23 -25 -157t-25 -161q0 -40 15.5 -63t43.5 -23q43 0 72.5 55
t50.5 181z" />
    <glyph glyph-name="Sacute" unicode="&#x15a;" horiz-adv-x="407" 
d="M277 888q-5 0 -6 4.5t1 8.5l38 95q2 5 13 5h50q5 0 6 -4t-2 -9l-59 -97q-3 -4 -13 -4zM145 -4q-143 0 -200 116q-4 8 5 14l35 19q8 4 13 -5q45 -88 147 -88q126 0 148 119q3 16 3 31q0 16 -4 33t-8 27.5t-16 29.5t-16 25t-22 28.5t-21 26.5q-6 8 -21 26.5t-24 30.5
t-22.5 31.5t-22 36.5t-17.5 37.5t-13 42t-4 43.5q0 13 4 39q13 73 55.5 116t113.5 43q44 0 74 -15t43.5 -40t17.5 -57.5t-6 -66.5q-2 -9 -11 -8l-35 2q-10 1 -8 12q4 28 1.5 54t-22.5 44.5t-56 18.5q-92 0 -113 -110q-2 -16 -2 -25q0 -19 6 -40.5t13 -37.5t21.5 -38.5
t23 -34t27 -35.5t24.5 -31q2 -3 16 -20.5t17.5 -22.5t15 -21t16 -24.5t12 -24t10.5 -27.5t6 -28t3 -32q0 -18 -3 -39q-15 -83 -66 -129t-138 -46z" />
    <glyph glyph-name="sacute" unicode="&#x15b;" horiz-adv-x="333" 
d="M106 676q-4 0 -5.5 4.5t0.5 8.5l38 95q2 5 13 5h50q5 0 6 -4t-2 -9l-59 -97q-3 -4 -13 -4zM114 -14q-46 0 -78 12q-9 4 -5 14l16 37q4 9 13 5q27 -12 65 -12q47 0 81 33t34 88q0 29 -8 56.5t-23 52.5t-30.5 47t-36 52.5t-35.5 56.5q-11 -71 -26 -146q-2 -13 -32 -13
q-25 1 -24 13q42 217 55 315q1 9 10 9h38q10 0 9 -11q-1 -16 -1 -37q0 -47 16.5 -89.5t40 -75t47.5 -64t41 -70.5t17 -82q1 -89 -49.5 -140t-134.5 -51z" />
    <glyph glyph-name="Scedilla" unicode="&#x15e;" horiz-adv-x="407" 
d="M258 818q44 0 74 -15t43.5 -40t17.5 -57.5t-6 -66.5q-2 -9 -11 -8l-35 2q-10 1 -8 12q4 28 1.5 54t-22.5 44.5t-56 18.5q-92 0 -113 -110q-2 -16 -2 -25q0 -19 6 -40.5t13 -37.5t21.5 -38.5t23 -34t27 -35.5t24.5 -31q2 -3 16 -20.5t17.5 -22.5t15 -21t16 -24.5t12 -24
t10.5 -27.5t6 -28t3 -32q0 -18 -3 -39q-7 -39 -21.5 -69.5t-37.5 -53.5t-55.5 -36t-72.5 -16l-14 -36q42 -1 58 -21.5t10 -55.5q-5 -27 -21.5 -47.5t-41.5 -31t-54 -10.5q-25 0 -49 10q-9 3 -4 13l20 34q5 7 14 4q12 -5 29 -5q45 0 51 33q3 15 -9.5 23.5t-44.5 5.5
q-15 -1 -20 6t0 21l22 59q-115 15 -163 114q-4 8 5 14l35 19q8 4 13 -5q45 -88 147 -88q126 0 148 119q3 17 3 31q0 16 -4 33t-8 27.5t-16 29.5t-16 25t-22 28.5t-21 26.5l-29 36q-28 35 -36 48.5t-26.5 45t-25.5 60t-7 58.5q0 13 4 39q13 73 55.5 116t113.5 43z" />
    <glyph glyph-name="scedilla" unicode="&#x15f;" horiz-adv-x="333" 
d="M298 177q1 -87 -47.5 -138t-129.5 -53l-17 -44q42 -1 58 -21.5t10 -55.5q-7 -41 -39.5 -65t-77.5 -24q-25 0 -49 10q-9 3 -4 13l20 34q5 7 14 4q12 -5 29 -5q45 0 51 33q3 15 -9.5 23.5t-44.5 5.5q-15 -1 -20 6t0 21l25 69q-16 3 -31 8q-9 4 -5 14l16 37q4 9 13 5
q27 -12 65 -12q47 0 81 33t34 88q0 29 -8 56.5t-23 52.5t-30.5 47t-36 52.5t-35.5 56.5q-11 -71 -26 -146q-2 -13 -32 -13q-25 1 -24 13q42 217 55 315q1 9 10 9h38q10 0 9 -11q-1 -16 -1 -37q0 -47 16.5 -89.5t40 -75t47.5 -64t41 -70.5t17 -82z" />
    <glyph glyph-name="Scaron" unicode="&#x160;" horiz-adv-x="407" 
d="M247 887q-8 0 -11 7l-37 99q-4 12 10 12h30q7 0 10 -6l34 -58l55 58q5 6 13 6h30q13 0 4 -12l-71 -99q-5 -7 -13 -7h-54zM145 -4q-144 0 -200 116q-4 8 5 14l35 19q8 4 13 -5q45 -88 147 -88q126 0 148 119q3 17 3 31t-2 27t-8 26.5t-10 23.5t-14.5 24.5t-15.5 21.5
t-18.5 24t-18.5 23.5t-24 30.5t-28.5 36.5t-25.5 38t-24.5 45t-15 46t-6.5 51.5q0 13 4 39q13 73 55.5 116t113.5 43q44 0 74 -15t43.5 -40t17.5 -57t-6 -67q-2 -9 -11 -8l-35 2q-10 1 -8 12q4 28 1.5 54t-22.5 44.5t-56 18.5q-92 0 -113 -110q-2 -16 -2 -25q0 -19 6 -40.5
t13 -37.5t21.5 -38.5t23 -34t27 -35.5t24.5 -31q3 -4 14 -18t15.5 -19.5t14 -19t14 -21.5t12 -21t11 -23.5t8 -23.5t6 -26.5t1.5 -27.5q0 -18 -3 -39q-15 -83 -66 -129t-138 -46z" />
    <glyph glyph-name="scaron" unicode="&#x161;" horiz-adv-x="333" 
d="M76 675q-8 0 -11 7l-36 99q-5 12 9 12h30q7 0 11 -6l34 -58l54 58q6 6 13 6h30q14 0 5 -12l-72 -99q-5 -7 -13 -7h-54zM114 -14q-46 0 -78 12q-10 4 -5 14l16 37q4 9 13 5q27 -12 65 -12q47 0 81 33t34 88q0 29 -8 56.5t-23 52.5t-30.5 47t-36 52.5t-35.5 56.5
q-11 -71 -26 -146q-2 -13 -32 -13q-25 1 -24 13q42 217 55 315q1 9 10 9h38q10 0 9 -11q-1 -16 -1 -37q0 -47 16.5 -89.5t40 -75t47.5 -64t41 -70.5t17 -82q1 -89 -49.5 -140t-134.5 -51z" />
    <glyph glyph-name="uni0162" unicode="&#x162;" horiz-adv-x="485" 
d="M827 785q4 -9 -2 -14q-52 -42 -156 -42q-49 0 -140.5 16.5t-144.5 16.5q-129 0 -204 -74.5t-75 -197.5q0 -57 24.5 -95.5t68.5 -42.5q11 -2 8 -12l-11 -34q-3 -8 -12 -8q-49 5 -92 51.5t-43 130.5q0 151 96 244.5t250 93.5q59 0 150.5 -16.5t134.5 -16.5q73 0 118 30
q8 7 13 -3zM498 713q10 0 10 -10l2 -36q0 -10 -9 -11q-26 -6 -39 -49.5t-34 -158.5q-6 -32 -9 -49q-1 -9 -4 -26q-7 -37 -10.5 -56t-10.5 -53.5t-12.5 -53t-13.5 -47t-16.5 -44.5t-19.5 -37.5t-23.5 -34t-28 -25.5t-34 -20t-39.5 -11l-14 -36q42 -1 58 -21.5t10 -55.5
q-7 -41 -39.5 -65t-77.5 -24q-25 0 -49 10q-9 3 -4 13l20 34q5 7 14 4q12 -5 29 -5q45 0 51 33q3 15 -9.5 23.5t-44.5 5.5q-15 -1 -20 6t0 21l21 56q-73 10 -114.5 70.5t-29.5 149.5q2 9 11 9h36q11 0 9 -13q-8 -70 27.5 -115.5t91.5 -45.5q74 0 110 76t70 278q3 13 7 39
q6 38 9.5 57t9.5 50.5t11 47t12.5 38t15.5 34t18.5 23.5t23.5 17.5t28 7.5z" />
    <glyph glyph-name="uni0163" unicode="&#x163;" horiz-adv-x="246" 
d="M271 282q2 14 32 13q26 0 24 -13q-19 -109 -44.5 -172t-62.5 -91.5t-92 -28.5q-16 0 -30 3l-13 -34q42 -1 58 -21.5t10 -55.5q-7 -41 -39.5 -65t-77.5 -24q-25 0 -49 10q-9 3 -4 13l20 34q5 7 14 4q12 -5 29 -5q45 0 51 33q3 15 -9.5 23.5t-44.5 5.5q-15 -1 -20 6t0 21
l27 75q-45 35 -45 120q0 35 7 73l50 288h-32q-11 0 -9 11l6 36q1 9 10 9h35l25 141q1 9 11 9h37q11 0 9 -11l-24 -139h76q11 0 9 -11l-6 -36q-1 -9 -10 -9h-79l-51 -288q-5 -26 -5 -57q0 -103 74 -103q50 0 79.5 51.5t53.5 184.5z" />
    <glyph glyph-name="Tcaron" unicode="&#x164;" horiz-adv-x="485" 
d="M454 865q-8 0 -11 7l-36 99q-5 12 9 12h30q7 0 11 -6l34 -58l54 58q6 6 13 6h30q14 0 5 -12l-72 -99q-5 -7 -13 -7h-54zM195 306q-3 -8 -12 -8q-17 2 -35 9t-36 21.5t-32 35t-23 50.5t-9 66q0 99 43.5 176t122 119.5t180.5 42.5q59 0 150.5 -16.5t134.5 -16.5
q73 0 118 30q8 7 13 -3l17 -27q4 -9 -2 -14q-52 -42 -156 -42q-49 0 -140.5 16.5t-144.5 16.5q-85 0 -148.5 -34t-97 -95.5t-33.5 -142.5q0 -57 24.5 -95.5t68.5 -42.5q11 -2 8 -12zM174 -11q-81 0 -130 62.5t-36 158.5q2 9 11 9h36q11 0 9 -13q-8 -70 27.5 -115.5
t91.5 -45.5q31 0 54.5 13t41 37.5t32.5 69.5t26.5 98.5t25.5 135.5q3 13 7 39q6 38 9.5 57t9.5 50.5t11 47t12.5 38t15.5 34t18.5 23.5t23.5 17.5t28 7.5q10 0 10 -10l2 -36q0 -9 -9 -11q-26 -6 -39 -49.5t-34 -158.5q-6 -32 -9 -49q-1 -9 -4 -26q-11 -57 -16.5 -86
t-17.5 -77.5t-23 -74t-29 -58.5t-39 -48.5t-50.5 -27.5t-65.5 -12z" />
    <glyph glyph-name="tcaron" unicode="&#x165;" horiz-adv-x="246" 
d="M237 629q-7 -3 -14.5 6.5t-3.5 14.5q35 47 23 93q-2 10 4 20.5t16 14.5q26 10 37 -15q8 -15 2 -44q-5 -31 -22.5 -55t-41.5 -35zM271 282q2 14 32 13q26 0 24 -13q-19 -109 -44.5 -172t-62.5 -91.5t-92 -28.5q-61 0 -92 36.5t-31 106.5q0 35 7 73l50 288h-32q-4 0 -7 3
t-2 8l6 36q1 9 10 9h35l25 141q1 9 11 9h37q11 0 9 -11l-24 -139h76q4 0 7 -3t2 -8l-6 -36q-2 -9 -10 -9h-79l-51 -288q-5 -26 -5 -57q0 -50 19 -76.5t55 -26.5q50 0 79.5 51.5t53.5 184.5z" />
    <glyph glyph-name="Tbar" unicode="&#x166;" horiz-adv-x="485" 
d="M827 785q4 -9 -2 -14q-52 -42 -156 -42q-49 0 -140.5 16.5t-144.5 16.5q-129 0 -204 -74.5t-75 -197.5q0 -57 24.5 -95.5t68.5 -42.5q11 -2 8 -12l-11 -34q-3 -8 -12 -8q-49 5 -92 51.5t-43 130.5q0 151 96 244.5t250 93.5q59 0 150.5 -16.5t134.5 -16.5q73 0 118 30
q8 7 13 -3zM521 620q11 0 10 -11l-7 -38q-2 -9 -11 -9h-63q-5 -22 -31 -163q-1 -9 -4 -26q-11 -57 -16.5 -86t-17.5 -78t-23 -74t-29 -58t-39 -49t-50.5 -27.5t-65.5 -11.5q-81 0 -130 62.5t-36 158.5q2 9 11 9h36q11 0 9 -13q-8 -70 27.5 -115.5t91.5 -45.5q31 0 54.5 13
t41 37.5t32.5 69.5t26.5 98.5t25.5 135.5q23 133 29 163h-45q-11 0 -9 10l7 39q1 9 11 9h52q15 43 36.5 66.5t53.5 26.5q10 0 10 -10l2 -36q0 -10 -9 -11q-20 -5 -34 -36h54z" />
    <glyph glyph-name="tbar" unicode="&#x167;" horiz-adv-x="246" 
d="M271 282q2 14 32 13q26 0 24 -13q-19 -109 -44.5 -172t-62.5 -91.5t-92 -28.5q-61 0 -92 36.5t-31 106.5q0 35 7 73l32 182h-33q-11 0 -9 11l7 38q1 9 11 9h34l8 48h-32q-4 0 -7 3t-2 8l6 36q2 9 10 9h35l25 141q2 9 11 9h37q11 0 9 -11l-24 -139h76q5 0 7.5 -3t1.5 -8
l-6 -36q-1 -9 -10 -9h-79l-9 -48h74q11 0 9 -11l-6 -38q-2 -9 -11 -9h-76l-32 -182q-5 -26 -5 -57q0 -103 74 -103q50 0 79.5 51.5t53.5 184.5z" />
    <glyph glyph-name="Umacron" unicode="&#x16a;" horiz-adv-x="556" 
d="M184 868q-11 0 -9 11l6 38q2 9 11 9h226q11 0 9 -11l-7 -38q-1 -9 -11 -9h-225zM581 282q2 14 32 13q26 0 24 -13q-29 -161 -73 -226.5t-126 -65.5q-30 0 -53 9.5t-38.5 27.5t-23.5 44.5t-8 61.5v14q-79 -157 -196 -157q-80 0 -112.5 68.5t-10.5 191.5l96 546q1 8 9 8
l36 1q6 0 9 -4t2 -9l-97 -551q-35 -195 76 -195q49 0 96.5 56t81 139.5t55.5 184.5q39 226 65 375q2 9 11 9h37q11 0 9 -11q-28 -160 -64 -366q-31 -177 -37.5 -218.5t-6.5 -65.5q0 -50 19 -76.5t55 -26.5q50 0 79.5 51.5t53.5 184.5z" />
    <glyph glyph-name="umacron" unicode="&#x16b;" horiz-adv-x="457" 
d="M119 608q-11 0 -9 11l6 38q2 9 11 9h226q11 0 9 -11l-7 -38q-1 -9 -10 -9h-226zM512 296q7 0 13.5 -1.5t10 -5t2.5 -7.5q-27 -152 -71.5 -221.5t-119.5 -69.5q-80 0 -100 76q-57 -77 -142 -77q-51 0 -79.5 30.5t-28.5 83.5q0 21 4 40l69 397q2 9 11 9h36q11 0 9 -11
l-69 -395q-3 -15 -3 -29q0 -69 61 -69q44 0 80.5 36.5t49.5 94.5l2 10l62 354q1 9 11 9h36q11 0 9 -11l-62 -352q-5 -32 -5 -51q0 -43 15 -66t44 -23q44 0 73.5 56t51.5 179q3 14 30 14z" />
    <glyph glyph-name="Uring" unicode="&#x16e;" horiz-adv-x="556" 
d="M290 866q-40 0 -58 22t-11.5 60t31.5 60.5t62 22.5q39 0 57 -21.5t12 -61.5q-7 -38 -32 -60t-61 -22zM277 948q-3 -15 2 -20.5t21 -5.5q12 0 18 6t9 20q3 16 -2 21.5t-20 5.5q-13 0 -19.5 -6t-8.5 -21zM581 282q2 14 32 13q26 0 24 -13q-29 -161 -73 -226.5t-126 -65.5
q-30 0 -53 9.5t-38.5 27.5t-23.5 44.5t-8 61.5v14q-79 -157 -196 -157q-80 0 -112.5 68.5t-10.5 191.5l96 546q1 8 9 8l36 1q6 0 9 -4t2 -9l-97 -551q-35 -195 76 -195q49 0 96.5 56t81.5 139.5t55 184.5q39 226 65 375q2 9 11 9h37q11 0 9 -11q-28 -160 -64 -366
q-31 -177 -37.5 -218.5t-6.5 -65.5q0 -103 74 -103q50 0 79.5 51.5t53.5 184.5z" />
    <glyph glyph-name="uring" unicode="&#x16f;" horiz-adv-x="457" 
d="M225 606q-40 0 -58 22t-11 60t31.5 60.5t61.5 22.5q40 0 58 -21.5t11 -61.5q-7 -38 -32 -60t-61 -22zM212 688q-3 -15 2 -20.5t21 -5.5q12 0 18 6t9 20q3 16 -1.5 21.5t-20.5 5.5q-13 0 -19.5 -6t-8.5 -21zM512 296q7 0 13.5 -1.5t10 -5t2.5 -7.5q-27 -152 -71.5 -221.5
t-119.5 -69.5q-80 0 -100 76q-57 -77 -142 -77q-51 0 -79.5 30.5t-28.5 83.5q0 21 4 40l69 397q2 9 11 9h36q11 0 9 -11l-69 -395q-3 -15 -3 -29q0 -69 61 -69q44 0 80.5 36.5t49.5 94.5l2 10l62 354q1 9 11 9h36q11 0 9 -11l-62 -352q-5 -32 -5 -51q0 -43 15 -66t44 -23
q44 0 73.5 56t51.5 179q3 14 30 14z" />
    <glyph glyph-name="Uhungarumlaut" unicode="&#x170;" horiz-adv-x="556" 
d="M223 869q-6 0 -8 3.5t1 8.5l54 99q2 7 12 7h53q14 0 6 -12l-76 -100q-5 -6 -12 -6h-30zM343 869q-6 0 -8 3.5t1 8.5l54 99q2 7 12 7h53q14 0 6 -12l-76 -100q-5 -6 -12 -6h-30zM581 282q2 14 32 13q26 0 24 -13q-29 -161 -73 -226.5t-126 -65.5q-30 0 -53 9.5t-38.5 27.5
t-23.5 44.5t-8 61.5v14q-79 -157 -196 -157q-80 0 -112.5 68.5t-10.5 191.5l96 546q1 8 9 8l36 1q6 0 9 -4t2 -9l-97 -551q-35 -195 76 -195q49 0 96.5 56t81.5 139.5t55 184.5q39 226 65 375q2 9 11 9h37q11 0 9 -11q-28 -160 -64 -366q-31 -177 -37.5 -218.5t-6.5 -65.5
q0 -103 74 -103q50 0 79.5 51.5t53.5 184.5z" />
    <glyph glyph-name="uhungarumlaut" unicode="&#x171;" horiz-adv-x="457" 
d="M158 609q-6 0 -8 3.5t1 8.5l54 99q3 7 12 7h53q14 0 6 -12l-76 -100q-5 -6 -12 -6h-30zM278 609q-6 0 -8 3.5t1 8.5l54 99q3 7 12 7h53q14 0 6 -12l-76 -100q-5 -6 -12 -6h-30zM512 296q7 0 13.5 -1.5t10 -5t2.5 -7.5q-27 -152 -71.5 -221.5t-119.5 -69.5q-80 0 -100 76
q-57 -77 -142 -77q-51 0 -79.5 30.5t-28.5 83.5q0 21 4 40l69 397q2 9 11 9h36q11 0 9 -11l-69 -395q-3 -15 -3 -29q0 -69 61 -69q44 0 80.5 36.5t49.5 94.5l2 10l62 354q1 9 11 9h36q11 0 9 -11l-62 -352q-5 -32 -5 -51q0 -43 15 -66t44 -23q44 0 73.5 56t51.5 179
q3 14 30 14z" />
    <glyph glyph-name="Uogonek" unicode="&#x172;" horiz-adv-x="556" 
d="M581 282q2 14 32 13q26 0 24 -13q-26 -149 -65.5 -215.5t-108.5 -74.5q-4 -5 -11 -14q-43 -51 -58 -71.5t-17 -35.5q-5 -30 29 -30q11 0 21 7q8 6 14 -2l16 -22q6 -7 1 -12q-26 -27 -62 -27q-41 0 -61.5 23.5t-13.5 62.5q4 23 24.5 50t65.5 71q-96 16 -96 141v14
q-79 -157 -196 -157q-80 0 -112.5 68.5t-10.5 191.5l96 546q1 8 9 8l36 1q6 0 9 -4t2 -9l-97 -551q-35 -195 76 -195q49 0 96.5 56t81.5 139.5t55 184.5q39 226 65 375q2 9 11 9h37q11 0 9 -11q-28 -160 -64 -366q-31 -177 -37.5 -218.5t-6.5 -65.5q0 -103 74 -103
q50 0 79.5 51.5t53.5 184.5z" />
    <glyph glyph-name="uogonek" unicode="&#x173;" horiz-adv-x="457" 
d="M512 296q11 0 19 -4t7 -10q-23 -133 -60 -202t-95 -84q-5 -7 -15 -18q-42 -51 -57 -71.5t-17 -35.5q-5 -30 29 -30q11 0 21 7q8 6 14 -2l16 -22q6 -7 1 -12q-26 -27 -62 -27q-41 0 -61.5 23.5t-13.5 62.5q4 23 24.5 50t65.5 71q-64 9 -81 75q-57 -77 -142 -77
q-51 0 -79.5 30.5t-28.5 83.5q0 21 4 40l69 397q2 9 11 9h36q11 0 9 -11l-69 -395q-3 -15 -3 -29q0 -69 61 -69q44 0 80.5 36.5t49.5 94.5l2 10l62 354q1 9 11 9h36q11 0 9 -11l-62 -352q-5 -32 -5 -51q0 -43 15 -66t44 -23q44 0 73.5 56t51.5 179q3 14 30 14z" />
    <glyph glyph-name="Wcircumflex" unicode="&#x174;" horiz-adv-x="805" 
d="M827 881q5 -12 -9 -12h-30q-7 0 -11 6l-34 58l-54 -58q-5 -6 -13 -6h-30q-13 0 -5 12l72 99q5 7 13 7h54q8 0 11 -7zM714 811q44 -6 63 -36t19 -89q0 -64 -13 -135l-51 -293q-23 -129 -85 -198.5t-156 -69.5q-58 0 -92.5 32t-43.5 92q-67 -119 -176 -119q-85 0 -118 69.5
t-10 200.5l92 536q1 9 11 9h37q11 0 9 -11l-93 -536q-20 -110 -1 -161t79 -51q51 0 100 46t72 136q1 9 3 17l96 546q1 8 9 8l36 1q6 0 9 -4t2 -9l-97 -551q-12 -65 -7 -108.5t27.5 -65t63.5 -21.5q20 0 39.5 6t41 21.5t39 38.5t33 60.5t23.5 85.5l51 293q16 92 16 136
q0 15 -2 25t-6 18.5t-11.5 14t-18.5 10.5q-8 3 -7 11l6 37q1 9 11 8z" />
    <glyph glyph-name="wcircumflex" unicode="&#x175;" horiz-adv-x="593" 
d="M229 609q-14 0 -5 12l72 99q5 7 13 7h54q8 0 11 -7l36 -99q5 -12 -9 -12h-30q-7 0 -11 6l-34 58l-54 -58q-6 -6 -13 -6h-30zM485 562q33 -19 48.5 -52t15.5 -88q0 -60 -16 -146q-27 -150 -74 -218t-128 -68q-79 0 -101 68q-52 -68 -120 -68q-53 0 -83 31t-30 84
q0 12 4 39l69 397q2 9 11 9h37q11 0 9 -11l-69 -395q-3 -15 -3 -27q0 -33 17 -52t48 -19q18 0 36.5 10.5t33.5 28t26.5 42.5t16.5 52l42 242q1 9 11 9h37q11 0 9 -11l-48 -275q-3 -16 -3 -30q0 -32 15.5 -50t44.5 -18q53 0 83 50.5t53 179.5q16 93 16 137q0 73 -37 97
q-9 6 -4 14l19 34q5 9 14 4z" />
    <glyph glyph-name="Ycircumflex" unicode="&#x176;" horiz-adv-x="492" 
d="M256 869q-13 0 -4 12l71 99q5 7 13 7h54q9 0 11 -7l37 -99q4 -12 -9 -12h-30q-8 0 -11 6l-34 58l-54 -58q-6 -6 -14 -6h-30zM521 804q11 0 9 -11l-74 -424q-10 -61 -22 -109t-33 -100.5t-47 -87t-65 -57.5t-87 -23q-36 0 -64 11t-40 22t-25 27q-12 15 -6 20l33 26
q8 6 14 -2q34 -48 94 -48q74 0 118 75t74 246l5 31q-77 -144 -189 -144q-78 0 -113 61t-18 154l58 331q2 8 9 8l36 1q6 0 9 -4t2 -9l-59 -337q-12 -66 9 -107.5t75 -41.5q50 0 97.5 57.5t81.5 143t55 187.5l16 95q2 9 11 9h36z" />
    <glyph glyph-name="ycircumflex" unicode="&#x177;" horiz-adv-x="442" 
d="M122 609q-14 0 -5 12l71 99q5 7 13 7h54q9 0 11 -7l37 -99q4 -12 -9 -12h-30q-8 0 -11 6l-34 58l-54 -58q-6 -6 -13 -6h-30zM467 277q2 11 16.5 14.5t27.5 -1t12 -13.5q-23 -115 -81 -191t-185 -161q-29 -149 -75.5 -222t-114.5 -73q-39 0 -62.5 23t-23.5 59
q0 110 225 244l17 93q-54 -59 -118 -59q-51 0 -79.5 30.5t-28.5 83.5q0 21 4 40l69 397q2 9 11 9h36q11 0 9 -11l-69 -395q-3 -15 -3 -29q0 -69 61 -69q42 0 79.5 44.5t54.5 110.5l60 340q2 9 11 9h36q10 0 9 -11l-96 -543q93 64 136 127t62 154zM74 -314q74 0 119 200
q-155 -97 -155 -166q0 -16 9.5 -25t26.5 -9z" />
    <glyph glyph-name="Ydieresis" unicode="&#x178;" horiz-adv-x="492" 
d="M290 874q-19 0 -24.5 9t-1.5 35q4 25 13 34t28.5 9t25.5 -9.5t1 -33.5q-3 -17 -7.5 -26t-12.5 -13.5t-22 -4.5zM433 874q-19 0 -24.5 9t-1.5 35q4 25 13 34t28.5 9t25.5 -9.5t1 -33.5q-3 -17 -7.5 -26t-12.5 -13.5t-22 -4.5zM521 804q11 0 9 -11l-74 -424
q-10 -61 -22 -109t-33 -100.5t-47 -87t-65 -57.5t-87 -23q-36 0 -64 11t-40 22t-25 27q-12 15 -6 20l33 26q8 6 14 -2q34 -48 94 -48q74 0 118 75t74 246l5 31q-77 -144 -189 -144q-78 0 -113 61t-19 154l59 331q2 8 9 8l36 1q6 0 9 -4t2 -9l-59 -337q-12 -66 9 -107.5
t75 -41.5q50 0 97.5 57.5t81.5 143t55 187.5l16 95q2 9 11 9h36z" />
    <glyph glyph-name="Zacute" unicode="&#x179;" horiz-adv-x="500" 
d="M365 881q-4 0 -5.5 4.5t0.5 8.5l38 95q2 5 13 5h50q5 0 6 -4t-2 -9l-59 -97q-3 -4 -13 -4zM584 802q9 -4 3 -14l-476 -739q26 5 50 5q40 0 98.5 -13t82.5 -13q144 0 183 253q2 11 33 11q23 -1 23 -11q-58 -309 -248 -309q-43 0 -99 13.5t-84 13.5q-57 0 -97 -20
q-5 -2 -8.5 -0.5t-4.5 6.5l-8 33q-1 6 2 9l463 717q-11 -2 -23 -2q-32 0 -93.5 17t-104.5 17q-50 0 -82.5 -29.5t-32.5 -71.5q0 -21 8 -40q3 -8 -4 -13l-35 -23q-10 -6 -14 3q-15 30 -15 62q0 66 53.5 117t130.5 51q47 0 108.5 -18t83.5 -18q38 0 65 18q6 7 13 3z" />
    <glyph glyph-name="zacute" unicode="&#x17a;" horiz-adv-x="406" 
d="M257 610q-4 0 -5.5 4.5t0.5 8.5l38 95q2 5 13 5h50q5 0 6 -4t-2 -9l-59 -97q-3 -4 -13 -4zM431 282q2 11 16.5 14.5t27.5 -1t12 -13.5q-21 -107 -69 -177.5t-139 -129.5q-10 -66 -29 -125.5t-45.5 -109.5t-63 -79.5t-77.5 -29.5q-39 0 -62.5 23t-23.5 59q0 130 248 289
q9 57 9 100q0 45 -18.5 67.5t-64.5 22.5q-6 0 -27 -1q-5 -1 -8 2.5t-3 8.5l3 35q0 8 7 9q4 0 10 1l143 251h-62q-56 0 -91 19q-19 -111 -43 -235q-2 -13 -32 -13q-25 1 -24 13q19 99 56 314q1 9 10 9h37q9 0 10.5 -9.5t8.5 -17t19 -13t29 -8.5t37 -3h90q7 0 12 -6l14 -19
q4 -6 0 -13l-152 -269q52 -8 73.5 -42t21.5 -94q0 -32 -3 -67q61 47 94 101.5t49 136.5zM71 -313q31 0 59.5 37t48.5 89.5t34 117.5q-178 -124 -178 -210q0 -16 9.5 -25t26.5 -9z" />
    <glyph glyph-name="Zdotaccent" unicode="&#x17b;" horiz-adv-x="500" 
d="M371 889q-20 0 -25.5 9.5t-0.5 34.5q4 25 13 34t29 9q19 0 25 -9t1 -34t-13.5 -34.5t-28.5 -9.5zM584 802q9 -4 3 -14l-476 -739q26 5 50 5q40 0 98.5 -13t82.5 -13q144 0 183 253q2 11 33 11q23 -1 23 -11q-58 -309 -248 -309q-43 0 -99 13.5t-84 13.5q-57 0 -97 -20
q-5 -2 -8.5 -0.5t-4.5 6.5l-8 33q-1 6 2 9l463 717q-11 -2 -23 -2q-32 0 -93.5 17t-104.5 17q-50 0 -82.5 -29.5t-32.5 -71.5q0 -21 8 -40q3 -8 -4 -13l-35 -23q-10 -6 -14 3q-15 30 -15 62q0 66 53.5 117t130.5 51q47 0 108.5 -18t83.5 -18q38 0 65 18q6 7 13 3z" />
    <glyph glyph-name="zdotaccent" unicode="&#x17c;" horiz-adv-x="406" 
d="M263 618q-20 0 -25.5 9.5t-0.5 34.5q4 25 13 34t29 9q19 0 25 -9t1 -34t-13.5 -34.5t-28.5 -9.5zM431 282q2 11 16.5 14.5t27.5 -1t12 -13.5q-21 -107 -69 -177.5t-139 -129.5q-10 -66 -29 -125.5t-45.5 -109.5t-63 -79.5t-77.5 -29.5q-39 0 -62.5 23t-23.5 59
q0 130 248 289q9 57 9 100q0 45 -18.5 67.5t-64.5 22.5q-6 0 -27 -1q-5 -1 -8 2.5t-3 8.5l3 35q0 8 7 9q4 0 10 1l143 251h-62q-56 0 -91 19q-19 -111 -43 -235q-2 -13 -32 -13q-25 1 -24 13q19 99 56 314q1 9 10 9h37q9 0 10 -9q1 -8 6 -14.5t13 -11.5t19.5 -8.5t25.5 -5.5
t30 -2h90q7 0 12 -6l14 -19q4 -6 0 -13l-152 -269q52 -7 73.5 -41.5t21.5 -94.5q0 -32 -3 -67q61 47 94 101.5t49 136.5zM71 -313q31 0 59.5 37t48.5 89.5t34 117.5q-178 -124 -178 -210q0 -16 9.5 -25t26.5 -9z" />
    <glyph glyph-name="Zcaron" unicode="&#x17d;" horiz-adv-x="500" 
d="M324 887l-36 99q-5 12 9 12h30q7 0 11 -6l34 -58l54 58q6 6 13 6h30q14 0 5 -12l-72 -99q-5 -7 -13 -7h-54q-8 0 -11 7zM584 802q9 -4 3 -14l-476 -739q26 5 50 5q40 0 98.5 -13t82.5 -13q144 0 183 253q2 11 33 11q23 -1 23 -11q-58 -309 -248 -309q-43 0 -99 13.5
t-84 13.5q-57 0 -97 -20q-5 -2 -8.5 -0.5t-4.5 6.5l-8 33q-1 6 2 9l463 717q-11 -2 -23 -2q-32 0 -93.5 17t-104.5 17q-50 0 -82.5 -29.5t-32.5 -71.5q0 -21 8 -40q3 -8 -4 -13l-35 -23q-10 -6 -14 3q-15 30 -15 62q0 66 53.5 117t130.5 51q47 0 108.5 -18t83.5 -18
q38 0 65 18q6 7 13 3z" />
    <glyph glyph-name="zcaron" unicode="&#x17e;" horiz-adv-x="406" 
d="M216 616l-36 99q-5 12 9 12h30q7 0 11 -6l34 -58l54 58q6 6 13 6h30q14 0 5 -12l-72 -99q-5 -7 -13 -7h-54q-8 0 -11 7zM431 282q2 11 16.5 14.5t27.5 -1t12 -13.5q-21 -107 -69.5 -177.5t-138.5 -129.5q-10 -66 -29 -125.5t-45.5 -109.5t-63 -79.5t-77.5 -29.5
q-39 0 -62.5 23t-23.5 59q0 130 248 289q9 57 9 100q0 45 -18.5 67.5t-64.5 22.5q-6 0 -27 -1q-5 -1 -8 2.5t-3 8.5l3 35q0 8 7 9q4 0 10 1l143 251h-62q-56 0 -91 19q-19 -111 -43 -235q-2 -13 -32 -13q-25 1 -24 13q19 99 56 314q1 9 10 9h37q9 0 10 -9q1 -8 6 -14.5
t13 -11.5t19.5 -8.5t25.5 -5.5t30 -2h90q7 0 12 -6l13 -19q5 -6 1 -13l-152 -269q51 -7 73 -41.5t22 -94.5q0 -32 -3 -67q61 47 94 101.5t49 136.5zM71 -313q31 0 59.5 37t48.5 89.5t34 117.5q-178 -124 -178 -210q0 -16 9.5 -25t26.5 -9z" />
    <glyph glyph-name="Scommaaccent" unicode="&#x218;" horiz-adv-x="407" 
d="M145 -4q-143 0 -200 116q-4 8 5 14l35 19q8 4 13 -5q45 -88 147 -88q126 0 148 119q3 17 3 31q0 16 -4 33t-8 27.5t-16 29.5t-16 25t-22 28.5t-21 26.5l-29 36q-28 35 -36 48.5t-26.5 45t-25.5 60t-7 58.5q0 13 4 39q13 73 55.5 116t113.5 43q44 0 74 -15t43.5 -40
t17.5 -57t-6 -67q-2 -9 -11 -8l-35 2q-10 1 -8 12q4 28 1.5 54t-22.5 44.5t-56 18.5q-92 0 -113 -110q-2 -16 -2 -25q0 -23 6 -45.5t23 -50.5t24 -39t34 -45.5t28 -36.5q2 -3 16 -20.5t17.5 -22.5t15 -21t16 -24.5t12 -24t10.5 -27.5t6 -28t3 -32q0 -18 -3 -39
q-15 -83 -66 -129t-138 -46zM119 -195q-7 -3 -14.5 6.5t-3.5 14.5q35 47 23 93q-3 10 3.5 20.5t16.5 14.5q26 10 37 -15q7 -15 2 -44q-5 -31 -22.5 -55t-41.5 -35z" />
    <glyph glyph-name="scommaaccent" unicode="&#x219;" horiz-adv-x="333" 
d="M114 -14q-46 0 -78 12q-9 4 -5 14l16 37q4 9 13 5q27 -12 65 -12q47 0 81 33t34 88q0 29 -8 56.5t-23 52.5t-30.5 47t-36 52.5t-35.5 56.5q-11 -71 -26 -146q-2 -13 -32 -13q-25 1 -24 13q42 217 55 315q1 9 10 9h38q10 0 9 -11q-1 -16 -1 -37q0 -47 16.5 -89.5t40 -75
t47.5 -64t41 -70.5t17 -82q1 -89 -49.5 -140t-134.5 -51zM75 -213q-5 -2 -10.5 2t-8 10t0.5 9q35 47 23 93q-3 10 3.5 20.5t16.5 14.5q26 10 37 -15q7 -15 2 -44q-5 -31 -22.5 -55t-41.5 -35z" />
    <glyph glyph-name="uni021A" unicode="&#x21a;" horiz-adv-x="485" 
d="M195 306q-3 -8 -12 -8q-49 5 -92 51.5t-43 130.5q0 151 96 244.5t250 93.5q59 0 150.5 -16.5t134.5 -16.5q73 0 118 30q8 7 13 -3l17 -27q4 -9 -2 -14q-52 -42 -156 -42q-49 0 -140.5 16.5t-144.5 16.5q-129 0 -204 -74.5t-75 -197.5q0 -57 24.5 -95.5t68.5 -42.5
q11 -2 8 -12zM174 -11q-81 0 -130 62.5t-36 158.5q2 9 11 9h36q11 0 9 -13q-8 -70 27.5 -115.5t91.5 -45.5q74 0 110 76t70 278q3 13 7 39q6 38 9.5 57t9.5 50.5t11 47t12.5 38t15.5 34t18.5 23.5t23.5 17.5t28 7.5q10 0 10 -10l2 -36q0 -9 -9 -11q-25 -6 -38.5 -49.5
t-34.5 -158.5q-6 -32 -9 -49q-1 -9 -4 -26q-11 -57 -16.5 -86t-17.5 -77.5t-23 -74t-29 -58.5t-39 -48.5t-50.5 -27.5t-65.5 -12zM164 -200q-7 -3 -14.5 6.5t-3.5 14.5q35 47 23 93q-2 7 0.5 14t7.5 12.5t12 8.5q26 10 37 -15q7 -15 2 -44q-5 -31 -22.5 -55t-41.5 -35z" />
    <glyph glyph-name="uni021B" unicode="&#x21b;" horiz-adv-x="246" 
d="M271 282q2 14 32 13q26 0 24 -13q-29 -161 -73 -226.5t-126 -65.5q-123 0 -123 143q0 35 7 73l50 288h-32q-11 0 -9 11l6 36q1 9 10 9h35l25 141q1 9 11 9h37q11 0 9 -11l-24 -139h76q11 0 9 -11l-6 -36q-1 -9 -10 -9h-79l-51 -288q-5 -26 -5 -57q0 -103 74 -103
q50 0 79.5 51.5t53.5 184.5zM81 -47q26 10 37 -15q7 -15 2 -44q-5 -30 -22.5 -54.5t-41.5 -35.5q-4 -1 -8 1t-7 5.5t-4 7.5t1 7q35 47 23 93q-2 5 -0.5 10.5t4 10t7 8.5t9.5 6z" />
    <glyph glyph-name="circumflex" unicode="&#x2c6;" horiz-adv-x="362" 
d="M317 621q5 -12 -9 -12h-30q-7 0 -11 6l-34 58l-54 -58q-5 -6 -13 -6h-30q-13 0 -5 12l72 99q5 7 13 7h54q8 0 11 -7z" />
    <glyph glyph-name="caron" unicode="&#x2c7;" horiz-adv-x="342" 
d="M195 609q-8 0 -11 7l-36 99q-5 12 9 12h30q7 0 11 -6l34 -58l54 58q6 6 13 6h30q14 0 5 -12l-72 -99q-5 -7 -13 -7h-54z" />
    <glyph glyph-name="breve" unicode="&#x2d8;" horiz-adv-x="308" 
d="M213 605q-48 0 -69.5 26.5t-12.5 70.5q2 8 11 8h35q10 0 9 -11q-4 -20 4.5 -30t32.5 -10q46 0 53 43q2 9 11 9h35q5 0 7.5 -2.5t1.5 -6.5q-6 -44 -35.5 -70.5t-82.5 -26.5z" />
    <glyph glyph-name="dotaccent" unicode="&#x2d9;" horiz-adv-x="214" 
d="M167 618q-20 0 -25.5 9.5t-0.5 34.5q4 25 13 34t29 9q19 0 25 -9t1 -34t-13.5 -34.5t-28.5 -9.5z" />
    <glyph glyph-name="ring" unicode="&#x2da;" horiz-adv-x="250" 
d="M183 606q-40 0 -58 22t-11 60t31.5 60.5t61.5 22.5q40 0 58 -21.5t11 -61.5q-7 -38 -32 -60t-61 -22zM193 662q22 0 27 26q3 16 -1.5 21.5t-20.5 5.5q-24 0 -28 -27q-3 -15 2 -20.5t21 -5.5z" />
    <glyph glyph-name="ogonek" unicode="&#x2db;" horiz-adv-x="229" 
d="M74 -202q-27 0 -45.5 11t-26 30.5t-3.5 44.5q4 24 26 52.5t71 75.5q3 3 7 3h39q8 0 3 -6q-6 -7 -15 -18q-43 -51 -58 -71.5t-17 -35.5q-5 -30 29 -30q11 0 21 7q8 6 14 -2l16 -22q6 -7 1 -12q-26 -27 -62 -27z" />
    <glyph glyph-name="hungarumlaut" unicode="&#x2dd;" horiz-adv-x="384" 
d="M151 609q-14 0 -7 12l54 99q3 7 12 7h53q15 0 6 -12l-76 -100q-5 -6 -12 -6h-30zM271 609q-14 0 -7 12l54 99q3 7 12 7h53q15 0 6 -12l-76 -100q-5 -6 -12 -6h-30z" />
    <glyph glyph-name="gravecomb" unicode="&#x300;" horiz-adv-x="0" 
d="M-49 609q-8 0 -11 8l-40 98q-3 12 8 12h56q8 0 10 -9l18 -98q2 -11 -9 -11h-32z" />
    <glyph glyph-name="acutecomb" unicode="&#x301;" horiz-adv-x="0" 
d="M-113 610q-4 0 -5.5 4.5t0.5 8.5l38 95q2 5 13 5h50q5 0 6 -4t-2 -9l-59 -97q-3 -4 -13 -4z" />
    <glyph glyph-name="uni0302" unicode="&#x302;" horiz-adv-x="0" 
d="M-35 621q5 -12 -9 -12h-30q-7 0 -11 6l-34 58l-54 -58q-5 -6 -13 -6h-30q-13 0 -5 12l72 99q5 7 13 7h54q8 0 11 -7z" />
    <glyph glyph-name="tildecomb" unicode="&#x303;" horiz-adv-x="0" 
d="M-247 615q-11 0 -9 10q5 36 27.5 58t58.5 22q30 0 68 -29q28 -21 40 -21q11 0 19 7t9.5 16.5t10.5 9.5h30q11 0 10 -10q-4 -33 -29 -56t-60 -23q-5 0 -10 0.5t-9.5 2t-8.5 2.5t-9 3.5t-7 4t-7.5 5t-7 4.5t-6.5 5t-6 4q-23 19 -37 19q-8 0 -15.5 -6t-9.5 -18
q-2 -10 -10 -10h-32z" />
    <glyph glyph-name="uni0304" unicode="&#x304;" horiz-adv-x="0" 
d="M-220 608q-11 0 -9 11l6 38q2 9 11 9h226q11 0 9 -11l-6 -38q-2 -9 -11 -9h-226z" />
    <glyph glyph-name="uni0306" unicode="&#x306;" horiz-adv-x="0" 
d="M-110 605q-48 0 -69.5 26.5t-12.5 70.5q2 8 11 8h35q10 0 9 -11q-4 -20 4.5 -30t32.5 -10q46 0 53 43q2 9 11 9h35q5 0 7.5 -2.5t1.5 -6.5q-6 -44 -35.5 -70.5t-82.5 -26.5z" />
    <glyph glyph-name="uni0307" unicode="&#x307;" horiz-adv-x="0" 
d="M-51 618q-20 0 -25.5 9.5t-0.5 34.5q4 25 13 34t29 9q19 0 25 -9t1 -34t-13.5 -34.5t-28.5 -9.5z" />
    <glyph glyph-name="uni0308" unicode="&#x308;" horiz-adv-x="0" 
d="M-194 614q-20 0 -25 9t-1 35q4 25 12.5 34t28.5 9t25.5 -9.5t1.5 -33.5q-5 -25 -13.5 -34.5t-28.5 -9.5zM-51 614q-20 0 -25 9t-1 35q4 25 12.5 34t28.5 9t25.5 -9.5t1.5 -33.5q-5 -25 -13.5 -34.5t-28.5 -9.5z" />
    <glyph glyph-name="uni030A" unicode="&#x30a;" horiz-adv-x="0" 
d="M-77 606q-40 0 -58 22t-11 60t31.5 60.5t61.5 22.5q40 0 58 -21.5t11 -61.5q-7 -38 -32 -60t-61 -22zM-67 662q22 0 27 26q3 16 -1.5 21.5t-20.5 5.5q-24 0 -28 -27q-3 -15 2 -20.5t21 -5.5z" />
    <glyph glyph-name="uni030B" unicode="&#x30b;" horiz-adv-x="0" 
d="M-243 609q-14 0 -7 12l54 99q3 7 12 7h53q15 0 6 -12l-76 -100q-5 -6 -12 -6h-30zM-123 609q-14 0 -7 12l54 99q3 7 12 7h53q15 0 6 -12l-76 -100q-5 -6 -12 -6h-30z" />
    <glyph glyph-name="uni030C" unicode="&#x30c;" horiz-adv-x="0" 
d="M-137 609q-8 0 -11 7l-36 99q-5 12 9 12h30q7 0 11 -6l34 -58l54 58q6 6 13 6h30q14 0 5 -12l-72 -99q-5 -7 -13 -7h-54z" />
    <glyph glyph-name="uni0312" unicode="&#x312;" horiz-adv-x="0" 
d="M10 732q6 3 13 -5t4 -13q-32 -43 -21 -85q2 -9 -3.5 -18.5t-15.5 -13.5q-23 -9 -33 14q-7 14 -2 40q5 28 21 49.5t37 31.5z" />
    <glyph glyph-name="uni0326" unicode="&#x326;" horiz-adv-x="0" 
d="M-145 -199q-7 -3 -14.5 6.5t-3.5 14.5q35 47 23 93q-2 7 0.5 14t7.5 12.5t12 8.5q26 10 37 -15q7 -15 2 -44q-5 -31 -22.5 -55t-41.5 -35z" />
    <glyph glyph-name="uni0327" unicode="&#x327;" horiz-adv-x="0" 
d="M-186 -44q42 -1 58 -21.5t10 -55.5q-7 -41 -39.5 -65t-77.5 -24q-25 0 -49 10q-9 3 -4 13l20 34q5 7 14 4q12 -5 29 -5q45 0 51 33q2 9 -2 16t-17 11t-35 2q-15 -1 -20 6.5t0 20.5l33 89q1 4 5 4h46q6 0 4 -6z" />
    <glyph glyph-name="uni0328" unicode="&#x328;" horiz-adv-x="0" 
d="M-155 -202q-27 0 -45.5 11t-26 30.5t-3.5 44.5q4 24 26 52.5t71 75.5q3 3 7 3h39q8 0 3 -6q-6 -7 -15 -18q-43 -51 -58 -71.5t-17 -35.5q-5 -30 29 -30q11 0 21 7q8 6 14 -2l16 -22q6 -7 1 -12q-26 -27 -62 -27z" />
    <glyph glyph-name="uni0335" unicode="&#x335;" horiz-adv-x="0" 
d="M-167 359q-11 0 -9 11l6 38q2 9 11 9h166q11 0 9 -11l-6 -38q-2 -9 -11 -9h-166z" />
    <glyph glyph-name="uni0336" unicode="&#x336;" horiz-adv-x="0" 
d="M-432 541q-11 0 -9 11l6 40q2 9 11 9h396q11 0 9 -11l-6 -40q-2 -9 -11 -9h-396z" />
    <glyph glyph-name="uni0337" unicode="&#x337;" horiz-adv-x="0" 
d="M-206 356q-9 -4 -13 6l-12 32q-3 9 6 13l179 77q9 4 13 -6l12 -32q3 -9 -6 -13z" />
    <glyph glyph-name="uni0338" unicode="&#x338;" horiz-adv-x="0" 
d="M-471 -57q-6 0 -8 3.5t1 8.5l473 792q4 7 12 7h39q6 0 8 -3.5t-1 -8.5l-473 -792q-4 -7 -12 -7h-39z" />
    <glyph glyph-name="Wgrave" unicode="&#x1e80;" horiz-adv-x="805" 
d="M719 867l-40 98q-3 12 8 12h56q9 0 10 -9l18 -98q2 -11 -9 -11h-32q-8 0 -11 8zM714 811q44 -6 63 -36t19 -89q0 -64 -13 -135l-51 -293q-23 -129 -85 -198.5t-156 -69.5q-58 0 -92.5 32t-43.5 92q-67 -119 -176 -119q-85 0 -118 69.5t-11 200.5l93 536q1 9 11 9h37
q11 0 9 -11l-93 -536q-20 -110 -1 -161t79 -51q51 0 100 46t72 136q1 9 3 17l96 546q1 8 9 8l36 1q6 0 9 -4t2 -9l-97 -551q-12 -65 -7 -108.5t27.5 -65t63.5 -21.5q16 0 32.5 4.5t34 14t34 26t31 39t26 55.5t18.5 73l51 293q16 92 16 136q0 15 -2 25t-6 18.5t-11.5 14
t-18.5 10.5q-8 3 -7 11l6 37q1 9 11 8z" />
    <glyph glyph-name="wgrave" unicode="&#x1e81;" horiz-adv-x="593" 
d="M302 607l-40 98q-4 12 8 12h56q8 0 10 -9l18 -98q1 -11 -9 -11h-32q-8 0 -11 8zM485 562q33 -19 48.5 -52t15.5 -88q0 -60 -16 -146q-27 -150 -74 -218t-128 -68q-79 0 -101 68q-52 -68 -120 -68q-53 0 -83 31t-30 84q0 12 4 39l69 397q2 9 11 9h37q11 0 9 -11l-69 -395
q-3 -15 -3 -27q0 -33 17 -52t48 -19q37 0 70 38.5t43 94.5l42 242q1 9 11 9h37q11 0 9 -11l-48 -275q-3 -16 -3 -30q0 -32 15.5 -50t44.5 -18q53 0 83 50.5t53 179.5q16 93 16 137q0 73 -37 97q-9 6 -4 14l19 34q5 9 14 4z" />
    <glyph glyph-name="Wacute" unicode="&#x1e82;" horiz-adv-x="805" 
d="M841 983q5 0 6 -4t-2 -9l-59 -97q-3 -4 -13 -4l-28 1q-10 0 -5 13l38 95q2 5 13 5h50zM714 811q44 -6 63 -36t19 -89q0 -64 -13 -135l-51 -293q-23 -129 -85 -198.5t-156 -69.5q-58 0 -92.5 32t-43.5 92q-67 -119 -176 -119q-85 0 -118 69.5t-11 200.5l93 536q1 9 11 9
h37q11 0 9 -11l-93 -536q-20 -110 -1 -161t79 -51q51 0 100 46t72 136q1 8 3 17l96 546q1 8 9 8l36 1q6 0 9 -4t2 -9l-97 -551q-18 -99 2.5 -147t81.5 -48q16 0 32.5 4.5t34 14t34 26t31 39t26 55.5t18.5 73l51 293q16 92 16 136q0 29 -8 44t-30 24q-8 3 -7 11l6 37
q1 9 11 8z" />
    <glyph glyph-name="wacute" unicode="&#x1e83;" horiz-adv-x="593" 
d="M328 610q-4 0 -5.5 4.5t0.5 8.5l38 95q2 5 13 5h50q5 0 6 -4t-2 -9l-59 -97q-3 -4 -13 -4zM485 562q33 -19 48.5 -52.5t15.5 -87.5q0 -60 -16 -146q-27 -150 -74 -218t-128 -68q-79 0 -101 68q-52 -68 -120 -68q-53 0 -83 31t-30 84q0 12 4 39l69 397q2 9 11 9h37
q11 0 9 -11l-69 -395q-3 -15 -3 -27q0 -33 17 -52t48 -19q37 0 70 38.5t43 94.5l42 242q1 9 11 9h37q11 0 9 -11l-48 -275q-3 -17 -3 -30q0 -22 7 -37t20.5 -23t32.5 -8q53 0 83 50.5t53 179.5q16 93 16 137q0 73 -37 97q-9 6 -4 14l19 34q5 9 14 4z" />
    <glyph glyph-name="Wdieresis" unicode="&#x1e84;" horiz-adv-x="805" 
d="M680 874q-20 0 -25 9t-1 35q4 25 12.5 34t28.5 9t25.5 -9.5t1.5 -33.5q-5 -25 -13.5 -34.5t-28.5 -9.5zM838 961q20 0 25.5 -9.5t1.5 -33.5q-5 -25 -13.5 -34.5t-28.5 -9.5t-25 9t-1 35q4 25 12.5 34t28.5 9zM714 811q44 -6 63 -36t19 -89q0 -64 -13 -135l-51 -293
q-23 -129 -85 -198.5t-156 -69.5q-58 0 -92.5 32t-43.5 92q-67 -119 -176 -119q-85 0 -118 69.5t-11 200.5l93 536q1 9 11 9h37q11 0 9 -11l-93 -536q-20 -110 -1 -161t79 -51q51 0 100 46t72 136q1 9 3 17l96 546q1 8 9 8l36 1q6 0 9 -4t2 -9l-97 -551q-12 -65 -7 -108.5
t27.5 -65t63.5 -21.5q16 0 32.5 4.5t34 14t34 26t31 39t26 55.5t18.5 73l51 293q16 92 16 136q0 15 -2 25t-6 18.5t-11.5 14t-18.5 10.5q-8 3 -7 11l6 37q1 9 11 8z" />
    <glyph glyph-name="wdieresis" unicode="&#x1e85;" horiz-adv-x="593" 
d="M263 614q-20 0 -25 9t-1 35q4 25 12.5 34t28.5 9t25.5 -9.5t1.5 -33.5q-5 -25 -13.5 -34.5t-28.5 -9.5zM406 614q-20 0 -25 9t-1 35q4 25 12.5 34t28.5 9t25.5 -9.5t1.5 -33.5q-3 -17 -7.5 -26t-12.5 -13.5t-22 -4.5zM485 562q33 -19 48.5 -52t15.5 -88q0 -60 -16 -146
q-27 -150 -74 -218t-128 -68q-79 0 -101 68q-52 -68 -120 -68q-53 0 -83 31t-30 84q0 12 4 39l69 397q2 9 11 9h37q11 0 9 -11l-69 -395q-3 -15 -3 -27q0 -33 17 -52t48 -19q37 0 70 38.5t43 94.5l42 242q1 9 11 9h37q11 0 9 -11l-48 -275q-3 -16 -3 -30q0 -32 15.5 -50
t44.5 -18q53 0 83 50.5t53 179.5q16 93 16 137q0 73 -37 97q-9 6 -4 14l19 34q5 9 14 4z" />
    <glyph glyph-name="Ygrave" unicode="&#x1ef2;" horiz-adv-x="492" 
d="M329 867l-40 98q-3 12 8 12h56q9 0 10 -9l18 -98q2 -11 -9 -11h-32q-8 0 -11 8zM521 804q11 0 9 -11l-74 -424q-10 -61 -22 -109t-33 -100.5t-47 -87t-65 -57.5t-87 -23q-36 0 -64 11t-40 22t-25 27q-12 15 -6 20l33 26q8 6 14 -2q34 -48 94 -48q74 0 118 75t74 246l5 31
q-77 -144 -189 -144q-78 0 -113 61t-19 154l59 331q2 8 9 8l36 1q6 0 9 -4t2 -9l-59 -337q-12 -66 9 -107.5t75 -41.5q50 0 97.5 57.5t81.5 143t55 187.5l16 95q2 9 11 9h36z" />
    <glyph glyph-name="ygrave" unicode="&#x1ef3;" horiz-adv-x="442" 
d="M194 607l-40 98q-3 12 8 12h56q9 0 10 -9l18 -98q2 -11 -9 -11h-32q-8 0 -11 8zM466 277q3 11 17.5 14.5t27.5 -1t11 -13.5q-22 -115 -80 -191t-185 -161q-29 -149 -75.5 -222t-114.5 -73q-39 0 -62.5 23t-23.5 59q0 110 225 244l17 93q-54 -59 -118 -59
q-51 0 -79.5 30.5t-28.5 83.5q0 21 4 40l69 397q2 9 11 9h36q10 0 9 -11l-69 -395q-3 -15 -3 -29q0 -69 61 -69q42 0 79.5 44.5t54.5 110.5l60 340q1 9 11 9h36q10 0 9 -11l-96 -543q93 64 136 127t61 154zM73 -314q75 0 120 200q-156 -97 -156 -166q0 -16 10 -25t26 -9z
" />
    <glyph glyph-name="endash" unicode="&#x2013;" horiz-adv-x="412" 
d="M57 270q-11 0 -9 11l6 32q1 9 10 9h300q11 0 9 -11l-5 -32q-2 -9 -11 -9h-300z" />
    <glyph glyph-name="emdash" unicode="&#x2014;" horiz-adv-x="578" 
d="M56 270q-11 0 -9 11l6 32q1 9 10 9h466q11 0 9 -11l-5 -32q-2 -9 -11 -9h-466z" />
    <glyph glyph-name="quoteleft" unicode="&#x2018;" horiz-adv-x="187" 
d="M201 795q4 2 10.5 -2.5t10 -11.5t0.5 -11q-42 -57 -28 -113q3 -12 -4.5 -25t-19.5 -17q-31 -12 -45 18q-9 18 -2 54q6 36 27.5 65t50.5 43z" />
    <glyph glyph-name="quoteright" unicode="&#x2019;" horiz-adv-x="187" 
d="M139 618q-7 -3 -16.5 8t-5.5 17q43 57 28 113q-3 12 4.5 25t20.5 17q30 12 44 -18q9 -18 3 -54q-7 -36 -28 -65t-50 -43z" />
    <glyph glyph-name="quotesinglbase" unicode="&#x201a;" horiz-adv-x="192" 
d="M13 -111q-8 -4 -17.5 7t-4.5 18q43 57 28 113q-3 12 4.5 24.5t19.5 17.5q32 12 45 -18q9 -18 3 -54q-7 -36 -28 -65.5t-50 -42.5z" />
    <glyph glyph-name="quotedblleft" unicode="&#x201c;" horiz-adv-x="296" 
d="M198 795q5 3 11.5 -1.5t9.5 -12t0 -11.5q-42 -56 -28 -113q2 -7 -0.5 -16t-9 -16t-14.5 -10q-31 -11 -45 18q-9 19 -2 54q6 37 27.5 66t50.5 42zM307 795q7 4 16.5 -7t4.5 -18q-42 -56 -28 -113q3 -11 -4.5 -24t-19.5 -18q-31 -11 -45 18q-9 19 -2 54q4 24 15 45.5
t27.5 37.5t35.5 25z" />
    <glyph glyph-name="quotedblright" unicode="&#x201d;" horiz-adv-x="296" 
d="M155 615q-7 -4 -16.5 7.5t-5.5 17.5q43 57 28 113q-3 12 4.5 24.5t20.5 17.5q30 11 44 -18q9 -19 3 -54q-6 -36 -27.5 -65t-50.5 -43zM264 615q-8 -4 -17.5 7t-4.5 18q43 57 28 113q-3 12 4.5 24.5t20.5 17.5q30 11 44 -18q9 -19 3 -54q-4 -24 -15.5 -45.5t-27.5 -37.5
t-35 -25z" />
    <glyph glyph-name="quotedblbase" unicode="&#x201e;" horiz-adv-x="267" 
d="M13 -111q-7 -3 -17.5 7t-4.5 18q43 57 28 113q-3 12 4.5 24.5t19.5 17.5q32 12 45 -18q9 -18 3 -54q-7 -36 -28 -65.5t-50 -42.5zM122 -111q-6 -3 -16.5 7.5t-5.5 17.5q43 57 28 113q-3 12 4.5 24.5t20.5 17.5q31 12 44 -18q9 -18 3 -54q-7 -36 -28 -65.5t-50 -42.5z" />
    <glyph glyph-name="dagger" unicode="&#x2020;" horiz-adv-x="331" 
d="M314 512q11 0 9 -11l-7 -38q-1 -9 -10 -9h-80l-101 -571q-1 -9 -10 -9h-38q-11 0 -9 11l100 569h-78q-11 0 -9 11l7 38q1 9 10 9h80l33 185q1 9 11 9h38q10 0 9 -11l-33 -183h78z" />
    <glyph glyph-name="daggerdbl" unicode="&#x2021;" horiz-adv-x="332" 
d="M314 512q11 0 9 -11l-6 -38q-2 -9 -11 -9h-80l-56 -316h78q11 0 9 -11l-6 -38q-2 -9 -11 -9h-80l-35 -197q-1 -9 -10 -9h-38q-11 0 -9 11l34 195h-78q-11 0 -9 11l7 38q1 9 11 9h79l56 316h-78q-11 0 -9 11l7 38q1 9 10 9h80l33 185q1 9 11 9h38q10 0 9 -11l-33 -183h78z
" />
    <glyph glyph-name="bullet" unicode="&#x2022;" horiz-adv-x="204" 
d="M97 248q-21 0 -30.5 8.5t-9.5 26.5q0 9 2 22q6 30 19 43t39 13q21 0 30.5 -8.5t9.5 -26.5q0 -9 -2 -21q-5 -31 -18.5 -44t-39.5 -13z" />
    <glyph glyph-name="ellipsis" unicode="&#x2026;" horiz-adv-x="401" 
d="M140 -8q-15 0 -22 6t-7 20q0 8 2 18q4 24 13.5 34t28.5 10q15 0 22 -6t7 -20q0 -8 -1 -18q-5 -24 -14.5 -34t-28.5 -10zM254 -8q-15 0 -22 6t-7 20q0 8 1 18q5 24 14.5 34t28.5 10q15 0 22 -6t7 -20q0 -8 -1 -18q-5 -24 -14.5 -34t-28.5 -10zM23 -10q-15 0 -22 6t-7 20
q0 8 1 18q5 24 14.5 34t28.5 10q15 0 22 -6t7 -20q0 -8 -1 -18q-5 -24 -14.5 -34t-28.5 -10z" />
    <glyph glyph-name="perthousand" unicode="&#x2030;" horiz-adv-x="933" 
d="M135 13q-12 3 -6 13l371 682q4 8 12 6l32 -7q12 -3 6 -13l-371 -682q-4 -8 -12 -6zM171 331q-59 0 -82 38.5t-10 110.5q28 160 146 160q58 0 80 -41t8 -119q-12 -70 -49 -109.5t-93 -39.5zM180 385q62 0 79 95q10 54 -0.5 79.5t-42.5 25.5q-35 0 -54 -24.5t-29 -80.5
q-3 -20 -3.5 -35t3 -29.5t15.5 -22.5t32 -8zM457 56q-58 0 -81 38.5t-10 110.5q28 160 146 160q58 0 79.5 -41t8.5 -119q-13 -70 -50 -109.5t-93 -39.5zM731 56q-116 0 -91 149q27 160 146 160q58 0 80 -41.5t8 -118.5q-9 -46 -28 -79.5t-48.5 -51.5t-66.5 -18zM467 110
q62 0 79 95q4 27 4 47t-5.5 32.5t-16 19t-26.5 6.5q-35 0 -54 -24.5t-28 -80.5q-4 -24 -4.5 -45t12.5 -35.5t39 -14.5zM741 110q63 0 79 95q9 54 -1.5 79.5t-42.5 25.5q-23 0 -39 -11t-26 -34t-17 -60q-3 -20 -3.5 -34.5t3 -29.5t15.5 -23t32 -8z" />
    <glyph glyph-name="guilsinglleft" unicode="&#x2039;" horiz-adv-x="205" 
d="M34 283q-3 9 3 18q62 82 106 158q4 8 13 5l28 -9q11 -3 5 -13q-33 -57 -98 -150q32 -93 45 -151q2 -9 -7 -12l-33 -9q-10 -3 -12 5q-17 76 -50 158z" />
    <glyph glyph-name="guilsinglright" unicode="&#x203a;" horiz-adv-x="205" 
d="M174 283q-63 -83 -106 -158q-5 -8 -13 -5l-28 9q-11 3 -5 13q33 57 97 150q-29 86 -44 151q-3 9 7 12l33 9q10 3 12 -7q4 -17 10.5 -37.5t12 -37t14 -41t13.5 -40.5q3 -10 -3 -18z" />
    <glyph glyph-name="fraction" unicode="&#x2044;" horiz-adv-x="213" 
d="M-120 20l481 785q7 12 33 12q11 0 16.5 -3t2.5 -9l-481 -785q-7 -12 -34 -12q-10 0 -16 3t-2 9z" />
    <glyph glyph-name="uni2070" unicode="&#x2070;" horiz-adv-x="288" 
d="M156 339q-49 0 -69 25.5t-20 75.5q0 42 14 122q7 45 13.5 74t18.5 60.5t27 49t39 29t56 11.5t52 -13t28 -35.5t8 -56.5q0 -40 -14 -119q-8 -43 -15 -73t-19 -60.5t-27.5 -48.5t-38.5 -29.5t-53 -11.5zM161 381q17 0 31 6.5t24 19.5t18 28t14 37.5t10 43t9 48.5
q12 72 12 108t-11.5 54.5t-39.5 18.5q-17 0 -30.5 -5t-23.5 -18.5t-16.5 -25t-13 -35.5t-10 -39.5t-9.5 -47.5q0 -3 -0.5 -5t-1 -4.5t-0.5 -4.5q-14 -70 -14 -108q0 -19 3 -32.5t9.5 -22t16 -12.5t23.5 -4z" />
    <glyph glyph-name="uni2074" unicode="&#x2074;" horiz-adv-x="262" 
d="M265 475q5 -8 -3 -13q-18 -12 -36 -17l-16 -91q-1 -9 -10 -9h-22q-10 0 -9 11l14 83q-16 0 -44.5 5.5t-40.5 5.5q-15 0 -22 -3q-8 -3 -14 3l-14 16q-5 8 -1 14q92 152 146 296q3 8 13 7l19 -4q11 -2 7 -12q-51 -134 -134 -276q6 1 17 1q15 0 40.5 -4.5t35.5 -5.5l22 132
q2 9 11 9h22q11 0 9 -11l-21 -123q4 2 9 5q9 4 14 -4z" />
    <glyph glyph-name="uni2075" unicode="&#x2075;" horiz-adv-x="236" 
d="M157 629q85 0 85 -96q0 -28 -5 -52q-7 -43 -25 -74t-47.5 -48t-67.5 -17q-26 0 -56 10q-11 4 -4 13l13 23q4 8 13 4q20 -8 40 -8q39 0 61.5 24.5t31.5 73.5q4 23 4 45q0 60 -47 60q-21 0 -37 -13q-8 -6 -14 -1l-19 13q-8 5 -5 13l46 172q1 7 8 10q22 10 40 10
q12 0 33.5 -5.5t31.5 -5.5q13 0 31 9q9 5 13 -4l10 -19q5 -8 -4 -13q-27 -16 -55 -16q-13 0 -33 5t-28 5q-7 0 -11 -1l-33 -123q17 6 30 6z" />
    <glyph glyph-name="uni2076" unicode="&#x2076;" horiz-adv-x="257" 
d="M232 787q36 0 58 -19.5t22 -53.5q0 -8 -9 -10l-24 -4q-10 -1 -12 8q-3 20 -12 28.5t-27 8.5q-43 0 -63 -33.5t-35 -109.5q29 24 69 24q80 0 80 -89q0 -27 -5 -51q-12 -74 -43 -109.5t-82 -35.5q-23 0 -39.5 7t-26 21t-13.5 31.5t-4 41.5q0 32 14 118q8 45 15.5 75
t19.5 61.5t27.5 49.5t38 29.5t51.5 11.5zM192 585q-61 0 -79 -99q-4 -21 -4 -42q0 -62 47 -62q32 0 50.5 24t27.5 80q5 28 5 44q0 55 -47 55z" />
    <glyph glyph-name="uni2077" unicode="&#x2077;" horiz-adv-x="229" 
d="M271 781q7 4 14 -1l15 -14q7 -6 3 -14q-8 -13 -29 -46.5t-48 -79t-55 -98.5q-47 -87 -62 -167q-2 -9 -11 -9h-21q-12 0 -9 11q31 160 186 373q-16 -4 -32 -4t-37 5.5t-30 5.5q-14 0 -25 -5q-10 -5 -14 4l-8 15q-5 10 4 14q23 14 50 14q14 0 39 -6.5t37 -6.5q15 0 33 9z
" />
    <glyph glyph-name="uni2078" unicode="&#x2078;" horiz-adv-x="280" 
d="M153 341q-92 0 -92 89q0 24 4 45q15 78 61 108q-22 22 -22 63q0 19 4 36q9 52 41 80t83 28q43 0 64.5 -20.5t21.5 -59.5q0 -18 -2 -28q-11 -65 -56 -99q29 -22 29 -70q0 -19 -4 -38q-12 -68 -43.5 -101t-88.5 -33zM199 602q61 0 76 80q2 14 2 20q0 47 -52 47
q-64 0 -76 -67q-3 -15 -3 -27q0 -53 53 -53zM160 382q37 0 56.5 21.5t27.5 71.5q4 24 4 33q0 28 -13.5 40.5t-43.5 12.5q-37 0 -56.5 -20t-28.5 -66q-4 -28 -4 -38q0 -29 14 -42t44 -13z" />
    <glyph glyph-name="uni2079" unicode="&#x2079;" horiz-adv-x="257" 
d="M210 789q46 0 64.5 -26t18.5 -75q0 -43 -14 -118q-8 -45 -15.5 -75t-20 -61.5t-27 -49.5t-37.5 -29.5t-52 -11.5q-36 0 -59 19.5t-22 53.5q0 8 10 10l24 4q11 2 12 -8q5 -21 13.5 -29t25.5 -8q18 0 32 6.5t24 17.5t18 30t13 39t11 50q-29 -24 -69 -24q-80 0 -80 89
q0 19 5 51q24 145 125 145zM167 545q60 0 79 99q4 21 4 42q0 62 -47 62q-32 0 -50 -24t-28 -80q-5 -28 -5 -44q0 -55 47 -55z" />
    <glyph glyph-name="Euro" unicode="&#x20ac;" horiz-adv-x="435" 
d="M448 704q10 -3 6 -13l-13 -36q-3 -9 -12 -7q-35 8 -66 8q-42 0 -75 -23t-58 -71.5t-44 -125.5h193q11 0 8 -11l-10 -38q-2 -9 -11 -9h-193q-3 -13 -5 -28q-3 -18 -6 -34h165q12 0 9 -11l-10 -38q-2 -9 -11 -9h-160q-10 -111 16 -161.5t94 -50.5q26 0 78 12q11 2 11 -9
v-35q0 -9 -7 -11q-55 -13 -92 -13q-98 0 -135.5 63.5t-22.5 204.5h-54q-11 0 -9 11l6 38q2 9 11 9h53q3 16 6 34q2 15 5 28h-51q-11 0 -9 11l6 38q2 9 11 9h56q34 145 92.5 211t152.5 66q38 0 75 -9z" />
    <glyph glyph-name="trademark" unicode="&#x2122;" horiz-adv-x="590" 
d="M298 751h-70l-69 -387q-1 -9 -11 -9h-24q-11 0 -10 10l68 386h-70q-11 0 -9 10l5 27q1 9 11 9h185q11 0 10 -11l-5 -26q-2 -9 -11 -9zM639 784q11 0 9 -11l-72 -408q-2 -9 -11 -9h-26q-11 0 -9 11l54 298l-110 -188q-4 -7 -12 -7h-23q-9 0 -11 9l-43 184l-52 -299
q-2 -9 -11 -9h-26q-11 0 -9 11l71 409q2 9 11 9h29q9 0 11 -9l54 -233l136 235q4 7 12 7h28z" />
    <glyph glyph-name="oneeighth" unicode="&#x215b;" horiz-adv-x="668" 
d="M569 817q11 0 16.5 -3t2.5 -9l-481 -785q-7 -12 -34 -12q-10 0 -16 3t-2 9l481 785q7 12 33 12zM80 641q-8 6 -1 15q59 62 97 122q4 7 13 5l16 -5q9 -3 7 -12l-72 -407q-1 -9 -11 -9h-21q-11 0 -10 11l58 322q-21 -28 -44 -52q-5 -7 -14 -2zM643 334q-12 -66 -56 -99
q29 -22 29 -70q0 -20 -4 -38q-12 -68 -44 -101t-88 -33q-92 0 -92 89q0 23 4 45q15 78 61 108q-22 22 -22 63q0 18 4 36q6 34 22 58.5t42 37t60 12.5q28 0 47.5 -9.5t29 -27.5t9.5 -43q0 -18 -2 -28zM526 254q61 0 76 80q2 14 2 20q0 47 -52 47q-64 0 -76 -67q-3 -15 -3 -27
q0 -53 53 -53zM571 127q4 24 4 33q0 19 -6 30.5t-18.5 17t-32.5 5.5q-37 0 -57 -20t-28 -66q-4 -28 -4 -38q0 -20 6 -32t19 -17.5t33 -5.5q37 0 56.5 21.5t27.5 71.5z" />
    <glyph glyph-name="threeeighths" unicode="&#x215c;" horiz-adv-x="767" 
d="M668 817q11 0 16.5 -3t2.5 -9l-481 -785q-7 -12 -34 -12q-10 0 -16 3t-2 9l481 785q7 12 33 12zM271 499q0 -68 -37.5 -113.5t-104.5 -45.5q-33 0 -73 17q-10 4 -5 13l11 21q5 9 15 4q26 -14 58 -14q42 0 68.5 31t26.5 80q0 28 -12.5 43.5t-35.5 15.5h-24q-11 0 -9 11
l4 21q1 9 11 9h26q7 0 16 6t17 16.5t15 24t11 29.5t4 31q0 50 -51 50q-31 0 -49.5 -21t-22.5 -57q0 -9 -9 -10l-21 -2q-6 -1 -8.5 2t-1.5 8q4 35 20 62.5t41.5 43t57.5 15.5q40 0 63 -23t23 -63q0 -24 -7.5 -48t-20.5 -45t-31 -36q35 -23 35 -76zM742 334q-12 -65 -56 -99
q29 -22 29 -70q0 -20 -4 -38q-12 -68 -44 -101t-88 -33q-92 0 -92 89q0 23 4 45q15 78 61 108q-22 22 -22 63q0 18 4 36q9 52 40.5 80t83.5 28q28 0 47.5 -9.5t29 -27.5t9.5 -43q0 -18 -2 -28zM625 254q61 0 76 80q2 14 2 20q0 47 -52 47q-64 0 -76 -67q-3 -15 -3 -27
q0 -53 53 -53zM670 127q4 24 4 33q0 19 -6 30.5t-18.5 17t-32.5 5.5q-37 0 -57 -20t-28 -66q-4 -28 -4 -38q0 -20 6 -32t19 -17.5t33 -5.5q37 0 56.5 21.5t27.5 71.5z" />
    <glyph glyph-name="fiveeighths" unicode="&#x215d;" horiz-adv-x="729" 
d="M116 20l481 785q7 12 33 12q11 0 16.5 -3t2.5 -9l-481 -785q-7 -12 -34 -12q-10 0 -16 3t-2 9zM157 629q85 0 85 -96q0 -28 -5 -52q-7 -43 -25 -74t-47.5 -48t-67.5 -17q-26 0 -56 10q-11 4 -4 13l13 23q4 8 13 4q20 -8 40 -8q39 0 61.5 24.5t31.5 73.5q4 23 4 45
q0 60 -47 60q-21 0 -37 -13q-8 -6 -14 -1l-19 13q-8 5 -5 13l46 172q1 7 8 10q22 10 40 10q12 0 33.5 -5.5t31.5 -5.5q13 0 31 9q9 5 13 -4l10 -19q5 -8 -4 -13q-27 -16 -55 -16q-13 0 -33 5t-28 5q-7 0 -11 -1l-33 -123q17 6 30 6zM541 -7q-92 0 -92 89q0 23 4 45
q15 78 61 108q-22 22 -22 63q0 18 4 36q6 34 22 58.5t42 37t60 12.5q28 0 47.5 -9.5t29 -27.5t9.5 -43q0 -18 -2 -28q-12 -66 -56 -99q29 -22 29 -70q0 -20 -4 -38q-12 -68 -44 -101t-88 -33zM587 254q61 0 76 80q2 14 2 20q0 47 -52 47q-64 0 -76 -67q-3 -15 -3 -27
q0 -53 53 -53zM548 34q37 0 56.5 21.5t27.5 71.5q4 24 4 33q0 19 -6 30.5t-18.5 17t-32.5 5.5q-37 0 -57 -20t-28 -66q-4 -28 -4 -38q0 -20 6 -32t19 -17.5t33 -5.5z" />
    <glyph glyph-name="seveneighths" unicode="&#x215e;" horiz-adv-x="722" 
d="M109 20l481 785q7 12 33 12q11 0 16.5 -3t2.5 -9l-481 -785q-7 -12 -34 -12q-10 0 -16 3t-2 9zM271 781q7 4 14 -1l15 -14q7 -6 3 -14q-8 -13 -29 -46.5t-48 -79t-55 -98.5q-47 -87 -62 -167q-2 -9 -11 -9h-21q-12 0 -9 11q31 160 186 373q-16 -4 -32 -4t-37 5.5t-30 5.5
q-14 0 -25 -5q-10 -5 -14 4l-8 15q-5 10 4 14q23 14 50 14q14 0 39 -6.5t37 -6.5q15 0 33 9zM534 -7q-92 0 -92 89q0 23 4 45q15 78 61 108q-22 22 -22 63q0 18 4 36q9 52 40.5 80t83.5 28q28 0 47.5 -9.5t29 -27.5t9.5 -43q0 -18 -2 -28q-12 -66 -56 -99q29 -22 29 -70
q0 -20 -4 -38q-12 -68 -44 -101t-88 -33zM580 254q61 0 76 80q2 14 2 20q0 47 -52 47q-64 0 -76 -67q-3 -15 -3 -27q0 -53 53 -53zM541 34q37 0 56.5 21.5t27.5 71.5q4 24 4 33q0 28 -13.5 40.5t-43.5 12.5q-37 0 -57 -20t-28 -66q-4 -28 -4 -38q0 -20 6 -32t19 -17.5
t33 -5.5z" />
    <glyph glyph-name="arrowleft" unicode="&#x2190;" horiz-adv-x="371" 
d="M352 413q11 0 10 -11l-7 -38q-2 -9 -11 -9h-218l48 -71q5 -8 -3 -14l-34 -25q-9 -6 -14 2l-81 122q-8 15 6 30l125 124q7 7 14 0l23 -23q8 -7 1 -14l-74 -73h215z" />
    <glyph glyph-name="arrowup" unicode="&#x2191;" horiz-adv-x="338" 
d="M335 438q7 -7 0 -14l-31 -30q-7 -7 -14 0l-61 60l-38 -218q-2 -9 -11 -9h-38q-11 0 -9 11l38 216l-83 -61q-8 -6 -14 2l-18 28q-5 8 3 14l142 103q17 12 30 0z" />
    <glyph glyph-name="arrowright" unicode="&#x2192;" horiz-adv-x="370" 
d="M367 399q9 -15 -5 -30l-125 -123q-8 -7 -15 0l-23 23q-7 7 0 14l74 72h-216q-11 0 -9 11l6 38q2 9 11 9h218l-48 72q-5 8 3 14l35 25q8 6 13 -3z" />
    <glyph glyph-name="arrowdown" unicode="&#x2193;" horiz-adv-x="338" 
d="M319 337q5 -8 -3 -14l-142 -103q-17 -12 -30 0l-104 102q-7 7 0 14l31 30q7 7 14 0l60 -60l39 218q1 9 11 9h37q11 0 10 -11l-39 -216l84 61q8 6 14 -2z" />
    <glyph glyph-name="uni2196" unicode="&#x2196;" horiz-adv-x="310" 
d="M285 300q6 -8 -2 -14l-33 -28q-7 -7 -14 1l-125 153l-25 -95q-3 -9 -12 -8l-36 3q-11 1 -8 12l42 158q1 4 3.5 8t6 6.5t7.5 4.5t8 3l161 14q11 1 10 -10l-3 -37q-1 -9 -10 -10l-96 -8z" />
    <glyph glyph-name="uni2197" unicode="&#x2197;" horiz-adv-x="309" 
d="M293 504q8 -1 13 -7t5 -14l-14 -160q-1 -9 -10 -10l-38 -4q-11 -1 -10 10l8 93l-181 -154q-7 -6 -14 1l-21 26q-6 8 1 14l182 154l-92 8q-11 1 -8 11l11 38q2 9 11 8z" />
    <glyph glyph-name="uni2198" unicode="&#x2198;" horiz-adv-x="309" 
d="M309 452q11 -1 9 -12l-42 -159q-3 -8 -10 -14t-16 -7l-161 -14q-11 -1 -10 10l3 37q1 9 10 10l96 8l-125 153q-7 8 1 14l33 28q8 7 14 -1l126 -153l25 95q2 9 11 8z" />
    <glyph glyph-name="uni2199" unicode="&#x2199;" horiz-adv-x="310" 
d="M316 480q7 -8 -1 -15l-181 -154l91 -7q11 -1 8 -12l-10 -38q-3 -9 -12 -8l-157 14q-8 1 -13 7t-5 14l14 161q1 9 10 10l39 3q11 1 10 -10l-9 -93l181 154q8 7 14 -1z" />
    <glyph glyph-name="minus" unicode="&#x2212;" horiz-adv-x="399" 
d="M75 318q-11 0 -9 11l6 38q2 9 11 9h267q11 0 9 -11l-7 -38q-1 -9 -11 -9h-266z" />
    <glyph glyph-name="infinity" unicode="&#x221e;" horiz-adv-x="546" 
d="M156 167q-68 0 -90.5 33t-9 111t48 111t102.5 33q70 0 91 -40q32 40 104 40q67 0 90.5 -33.5t10 -110.5t-48.5 -110.5t-103 -33.5q-72 0 -90 41q-35 -41 -105 -41zM166 223q42 0 58 15q17 16 27 73q11 59 -3 75q-11 13 -51 13q-43 0 -59 -16.5t-25.5 -71.5t0.5 -71.5
t53 -16.5zM361 223q22 0 35.5 3t23.5 13.5t15.5 26.5t10.5 45q10 55 -0.5 71.5t-53.5 16.5t-58 -15q-17 -17 -27 -73q-11 -62 5 -77q11 -11 49 -11z" />
    <glyph glyph-name="notequal" unicode="&#x2260;" horiz-adv-x="424" 
d="M390 622q6 0 8 -3.5t-1 -8.5l-96 -174h58q11 0 9 -11l-6 -38q-2 -9 -11 -9h-82l-39 -72h107q11 0 9 -11l-6 -38q-2 -9 -11 -9h-131l-104 -190q-4 -7 -12 -7h-36q-14 0 -7 12l101 185h-70q-11 0 -9 11l7 38q1 9 11 9h93l39 72h-119q-11 0 -9 11l7 38q1 9 10 9h143l99 179
q4 7 12 7h36z" />
    <glyph glyph-name="lessequal" unicode="&#x2264;" horiz-adv-x="375" 
d="M245 178l-169 205q-12 14 5 28l240 204q9 8 14 1l24 -28q5 -6 -4 -14l-209 -177l147 -179q5 -6 -4 -14l-30 -25q-9 -8 -14 -1zM250 59h-228q-10 0 -8 9l7 38q2 11 13 11h228q10 0 8 -9l-7 -38q-2 -11 -13 -11z" />
    <glyph glyph-name="greaterequal" unicode="&#x2265;" horiz-adv-x="375" 
d="M88 178q-8 -7 -14 1l-21 25q-7 8 1 14l210 179l-146 177q-6 8 1 14l33 28q8 7 14 -1l168 -204q12 -14 -4 -28zM40 59q-11 0 -9 11l7 38q2 9 11 9h229q11 0 9 -11l-7 -38q-2 -9 -11 -9h-229z" />
    <glyph glyph-name="lozenge" unicode="&#x25ca;" horiz-adv-x="443" 
d="M134 -126q-9 0 -10 9l-71 400q0 5 2 10l213 402q3 7 11 7h34q9 0 11 -9l70 -400q1 -5 -2 -10l-212 -402q-4 -7 -12 -7h-34zM168 -32l48 94l119 226l-44 251l-10 69l-38 -72l-131 -248l41 -230z" />
    <glyph glyph-name="A.ss01" unicode="&#xe000;" horiz-adv-x="878" 
d="M933 298q12 0 20 -4.5t6 -11.5q-28 -157 -73 -223t-122 -66q-50 0 -76 28.5t-26 81.5q0 25 6 59l22 122q-39 6 -114 27q-26 -67 -51.5 -119.5t-61 -106.5t-74 -90t-89 -58.5t-106.5 -22.5q-98 0 -156.5 59.5t-58.5 158.5q0 128 98 202.5t264 74.5q92 0 200 -29
q9 26 25 70.5t25.5 71t24.5 65t26 62t26 53t29 46.5t30.5 33.5t34.5 23.5t37 7h28q11 0 9 -10l-81 -467q45 1 73 17q8 4 13 -4l18 -30q6 -10 -4 -15q-43 -24 -107 -24h-3l-21 -117q-6 -34 -6 -51q0 -62 56 -62q47 0 76.5 51t52.5 182q3 16 30 16zM597 365q69 -21 103 -26
l72 409q-16 -10 -31.5 -31t-28 -46t-28.5 -65t-27 -72t-29.5 -84t-30.5 -85zM193 -30q48 0 90.5 20t75 51.5t63.5 80t53 96t46 109.5q-100 26 -180 26q-143 0 -224.5 -59t-81.5 -162q0 -75 42.5 -118.5t115.5 -43.5z" />
    <glyph glyph-name="Aacute.ss01" unicode="&#xe001;" horiz-adv-x="878" 
d="M805 872q-4 0 -5.5 4.5t0.5 8.5l38 95q2 5 13 5h50q5 0 6 -4t-2 -9l-59 -97q-2 -4 -13 -4zM933 298q12 0 20 -4.5t6 -11.5q-28 -157 -73 -223t-122 -66q-50 0 -76 28.5t-26 81.5q0 25 6 59l22 122q-39 6 -114 27q-26 -67 -51.5 -119.5t-61 -106.5t-74 -90t-89 -58.5
t-106.5 -22.5q-98 0 -156.5 59.5t-58.5 158.5q0 128 98 202.5t264 74.5q92 0 200 -29q9 26 25 70.5t25.5 71t24.5 65t26 62t26 53t29 46.5t30.5 33.5t34.5 23.5t37 7h28q11 0 9 -10l-81 -467q45 1 73 17q8 4 13 -4l18 -30q6 -10 -4 -15q-43 -24 -107 -24h-3l-21 -117
q-6 -34 -6 -51q0 -62 56 -62q47 0 76.5 51t52.5 182q3 16 30 16zM597 365q69 -21 103 -26l72 409q-19 -12 -36 -36.5t-35.5 -67.5t-31.5 -78t-36 -100.5t-36 -100.5zM193 -30q48 0 90.5 20t75 51.5t63.5 80t53 96t46 109.5q-100 26 -180 26q-143 0 -224.5 -59t-81.5 -162
q0 -75 42.5 -118.5t115.5 -43.5z" />
    <glyph glyph-name="Abreve.ss01" unicode="&#xe002;" horiz-adv-x="878" 
d="M810 867q-48 0 -69 26.5t-13 70.5q2 8 11 8h35q11 0 9 -11q-3 -20 5 -30t32 -10q47 0 54 43q1 9 10 9h35q5 0 7.5 -2.5t2.5 -6.5q-6 -44 -36 -70.5t-83 -26.5zM933 298q12 0 20 -4.5t6 -11.5q-19 -106 -45 -169t-62 -91.5t-88 -28.5q-50 0 -76 28.5t-26 81.5q0 25 6 59
l22 122q-39 6 -114 27q-26 -67 -51.5 -119.5t-61 -106.5t-74 -90t-89 -58.5t-106.5 -22.5q-98 0 -156.5 59.5t-58.5 158.5q0 128 98 202.5t264 74.5q92 0 200 -29q9 25 23 64t22.5 64t22 59.5t23 57.5t23 51t25 46t26 36.5t28.5 29t31 17.5t34 7h28q11 0 9 -10l-81 -467
q45 1 73 17q8 4 13 -4l18 -30q6 -10 -4 -15q-43 -24 -107 -24h-3l-21 -117q-6 -34 -6 -51q0 -62 56 -62q47 0 76.5 51t52.5 182q3 16 30 16zM597 365q69 -21 103 -26l72 409q-19 -12 -36 -36.5t-35.5 -67.5t-31.5 -78t-36 -100.5t-36 -100.5zM193 -30q48 0 90.5 20t75 51.5
t63.5 80t53 96t46 109.5q-100 26 -180 26q-143 0 -224.5 -59t-81.5 -162q0 -75 42.5 -118.5t115.5 -43.5z" />
    <glyph glyph-name="Acircumflex.ss01" unicode="&#xe003;" horiz-adv-x="878" 
d="M706 871q-13 0 -4 12l71 99q5 7 13 7h54q9 0 11 -7l37 -99q4 -12 -9 -12h-30q-8 0 -11 6l-34 58l-54 -58q-6 -6 -14 -6h-30zM933 298q12 0 20 -4.5t6 -11.5q-28 -157 -73 -223t-122 -66q-50 0 -76 28.5t-26 81.5q0 25 6 59l22 122q-39 6 -113 27q-27 -67 -52.5 -119.5
t-61 -106.5t-74 -90t-89 -58.5t-106.5 -22.5q-98 0 -156.5 59.5t-58.5 158.5q0 128 98 202.5t264 74.5q92 0 200 -29q9 26 25 70.5t25.5 71t24.5 65t26 62t26 53t29 46.5t30.5 33.5t34.5 23.5t37 7h28q11 0 9 -10l-81 -467q45 1 73 17q8 4 13 -4l18 -30q6 -10 -4 -15
q-43 -24 -107 -24h-3l-21 -117q-6 -34 -6 -51q0 -62 56 -62q47 0 76.5 51t52.5 182q3 16 30 16zM597 365q69 -21 103 -26l72 409q-16 -10 -31.5 -31t-28 -46t-28.5 -65t-27 -72t-29.5 -84t-30.5 -85zM194 -30q47 0 89.5 20t75 51.5t63.5 80t53 96t46 109.5q-100 26 -180 26
q-143 0 -224.5 -59t-81.5 -162q0 -75 42.5 -118.5t116.5 -43.5z" />
    <glyph glyph-name="Adieresis.ss01" unicode="&#xe004;" horiz-adv-x="878" 
d="M740 876q-19 0 -24 9t-2 35q4 25 13 34t28.5 9t25.5 -9.5t1 -33.5q-3 -17 -7.5 -26t-12.5 -13.5t-22 -4.5zM883 876q-19 0 -24 9t-2 35q3 17 7.5 26t12.5 13t21 4q20 0 26 -9.5t1 -33.5q-3 -17 -7.5 -26t-12.5 -13.5t-22 -4.5zM933 298q12 0 20 -4.5t6 -11.5
q-28 -157 -73 -223t-122 -66q-50 0 -76 28.5t-26 81.5q0 25 6 59l22 122q-39 6 -114 27q-26 -67 -51.5 -119.5t-61 -106.5t-74 -90t-89 -58.5t-106.5 -22.5q-98 0 -156.5 59.5t-58.5 158.5q0 128 98 202.5t264 74.5q92 0 200 -29q9 26 25 70.5t25.5 71t24.5 65t26 62t26 53
t29 46.5t30.5 33.5t34.5 23.5t37 7h28q11 0 9 -10l-81 -467q45 1 73 17q8 4 13 -4l18 -30q6 -10 -4 -15q-43 -24 -107 -24h-3l-21 -117q-6 -34 -6 -51q0 -62 56 -62q47 0 76.5 51t52.5 182q3 16 30 16zM597 365q69 -21 103 -26l72 409q-16 -10 -31.5 -31t-28 -46t-28.5 -65
t-27 -72t-29.5 -84t-30.5 -85zM193 -30q48 0 90.5 20t75 51.5t63.5 80t53 96t46 109.5q-100 26 -180 26q-143 0 -224.5 -59t-81.5 -162q0 -75 42.5 -118.5t115.5 -43.5z" />
    <glyph glyph-name="Agrave.ss01" unicode="&#xe005;" horiz-adv-x="878" 
d="M779 869l-40 98q-3 12 8 12h56q9 0 10 -9l18 -98q2 -11 -9 -11h-32q-8 0 -11 8zM933 298q12 0 20 -4.5t6 -11.5q-28 -157 -73 -223t-122 -66q-50 0 -76 28.5t-26 81.5q0 25 6 59l22 122q-39 6 -114 27q-26 -67 -51.5 -119.5t-61 -106.5t-74 -90t-89 -58.5t-106.5 -22.5
q-98 0 -156.5 59.5t-58.5 158.5q0 128 98 202.5t264 74.5q92 0 200 -29q9 26 25 70.5t25.5 71t24.5 65t26 62t26 53t29 46.5t30.5 33.5t34.5 23.5t37 7h28q11 0 9 -10l-81 -467q45 1 73 17q8 4 13 -4l18 -30q6 -10 -4 -15q-43 -24 -107 -24h-3l-21 -117q-6 -34 -6 -51
q0 -62 56 -62q47 0 76.5 51t52.5 182q3 16 30 16zM597 365q69 -21 103 -26l72 409q-16 -10 -31.5 -31t-28 -46t-28.5 -65t-27 -72t-29.5 -84t-30.5 -85zM193 -30q48 0 90.5 20t75 51.5t63.5 80t53 96t46 109.5q-100 26 -180 26q-143 0 -224.5 -59t-81.5 -162
q0 -75 42.5 -118.5t115.5 -43.5z" />
    <glyph glyph-name="Amacron.ss01" unicode="&#xe006;" horiz-adv-x="878" 
d="M703 870q-11 0 -9 11l7 38q1 9 11 9h225q11 0 10 -11l-7 -38q-2 -9 -11 -9h-226zM933 298q12 0 20 -4.5t6 -11.5q-28 -157 -73 -223t-122 -66q-50 0 -76 28.5t-26 81.5q0 25 6 59l22 122q-39 6 -114 27q-26 -67 -51.5 -119.5t-61 -106.5t-74 -90t-89 -58.5t-106.5 -22.5
q-98 0 -156.5 59.5t-58.5 158.5q0 128 98 202.5t264 74.5q92 0 200 -29q9 26 25 70.5t25.5 71t24.5 65t26 62t26 53t29 46.5t30.5 33.5t34.5 23.5t37 7h28q11 0 9 -10l-81 -467q45 1 73 17q8 4 13 -4l18 -30q6 -10 -4 -15q-43 -24 -107 -24h-3l-21 -117q-6 -34 -6 -51
q0 -62 56 -62q47 0 76.5 51t52.5 182q3 16 30 16zM597 365q69 -21 103 -26l72 409q-16 -10 -31.5 -31t-28 -46t-28.5 -65t-27 -72t-29.5 -84t-30.5 -85zM193 -30q48 0 90.5 20t75 51.5t63.5 80t53 96t46 109.5q-100 26 -180 26q-143 0 -224.5 -59t-81.5 -162
q0 -75 42.5 -118.5t115.5 -43.5z" />
    <glyph glyph-name="Aogonek.ss01" unicode="&#xe007;" horiz-adv-x="878" 
d="M933 298q12 0 20 -4.5t6 -11.5q-17 -99 -41 -160t-56 -92t-78 -36q-26 -31 -35 -42t-22 -28t-17 -26t-6 -17q-4 -30 29 -30q11 0 22 7q8 6 14 -2l16 -22q6 -7 1 -12q-26 -27 -63 -27q-41 0 -61 24t-14 62q4 22 23.5 48t61.5 68q-71 16 -71 106q0 25 6 59l22 122
q-39 6 -114 27q-26 -67 -51.5 -119.5t-61 -106.5t-74 -90t-89 -58.5t-106.5 -22.5q-98 0 -156.5 59.5t-58.5 158.5q0 128 98 202.5t264 74.5q92 0 200 -29q9 26 25 70.5t25.5 71t24.5 65t26 62t26 53t29 46.5t30.5 33.5t34.5 23.5t37 7h28q11 0 9 -10l-81 -467q45 1 73 17
q8 4 13 -4l18 -30q6 -10 -4 -15q-43 -24 -107 -24h-3l-21 -117q-6 -34 -6 -51q0 -62 56 -62q47 0 76.5 51t52.5 182q3 16 30 16zM597 365q69 -21 103 -26l72 409q-19 -12 -36 -36.5t-35.5 -67.5t-31.5 -78t-36 -100.5t-36 -100.5zM193 -30q48 0 90.5 20t75 51.5t63.5 80
t53 96t46 109.5q-100 26 -180 26q-94 0 -163 -26.5t-106 -76.5t-37 -118q0 -75 42.5 -118.5t115.5 -43.5z" />
    <glyph glyph-name="Aring.ss01" unicode="&#xe008;" horiz-adv-x="878" 
d="M809 868q-39 0 -57 22t-11.5 60t31.5 60.5t61 22.5q40 0 58 -21.5t11 -61.5q-6 -38 -31 -60t-62 -22zM796 950q-2 -10 0 -15.5t7.5 -8t15.5 -2.5q12 0 18 6t9 20q3 16 -1.5 21.5t-20.5 5.5q-12 0 -18.5 -6t-9.5 -21zM933 298q12 0 20 -4.5t6 -11.5q-28 -157 -73 -223
t-122 -66q-50 0 -76 28.5t-26 81.5q0 25 6 59l22 122q-39 6 -114 27q-26 -67 -51.5 -119.5t-61 -106.5t-74 -90t-89 -58.5t-106.5 -22.5q-98 0 -156.5 59.5t-58.5 158.5q0 128 98 202.5t264 74.5q92 0 200 -29q9 26 25 70.5t25.5 71t24.5 65t26 62t26 53t29 46.5t30.5 33.5
t34.5 23.5t37 7h28q11 0 9 -10l-81 -467q45 1 73 17q8 4 13 -4l18 -30q6 -10 -4 -15q-43 -24 -107 -24h-3l-21 -117q-6 -34 -6 -51q0 -62 56 -62q47 0 76.5 51t52.5 182q3 16 30 16zM597 365q69 -21 103 -26l72 409q-16 -10 -31.5 -31t-28 -46t-28.5 -65t-27 -72t-29.5 -84
t-30.5 -85zM193 -30q48 0 90.5 20t75 51.5t63.5 80t53 96t46 109.5q-100 26 -180 26q-143 0 -224.5 -59t-81.5 -162q0 -75 42.5 -118.5t115.5 -43.5z" />
    <glyph glyph-name="Atilde.ss01" unicode="&#xe009;" horiz-adv-x="878" 
d="M694 877q-11 0 -10 10q5 36 27.5 58t58.5 22q30 0 68 -29q28 -21 40 -21q6 0 11 2t8.5 5t6 7.5t3.5 8.5q1 10 10 10h30q11 0 10 -10q-4 -33 -28.5 -56t-60.5 -23q-4 0 -8.5 0.5t-8.5 1.5t-8.5 2.5l-7.5 2.5t-7 3.5t-6.5 4t-7 4.5l-6 4l-6 4t-5.5 4q-22 19 -37 19
q-4 0 -9 -2t-9.5 -8t-5.5 -14q-2 -10 -11 -10h-31zM933 298q12 0 20 -4.5t6 -11.5q-19 -106 -45 -169t-62 -91.5t-88 -28.5q-50 0 -76 28.5t-26 81.5q0 25 6 59l22 122q-39 6 -114 27q-26 -67 -51.5 -119.5t-61 -106.5t-74 -90t-89 -58.5t-106.5 -22.5q-98 0 -156.5 59.5
t-58.5 158.5q0 128 98 202.5t264 74.5q92 0 200 -29q9 26 25 70.5t25.5 71t24.5 65t26 62t26 53t29 46.5t30.5 33.5t34.5 23.5t37 7h28q11 0 9 -10l-81 -467q45 1 73 17q8 4 13 -4l18 -30q6 -10 -4 -15q-43 -24 -107 -24h-3l-21 -117q-6 -34 -6 -51q0 -62 56 -62
q47 0 76.5 51t52.5 182q3 16 30 16zM597 365q69 -21 103 -26l72 409q-19 -12 -36 -36.5t-35.5 -67.5t-31.5 -78t-36 -100.5t-36 -100.5zM193 -30q48 0 90.5 20t75 51.5t63.5 80t53 96t46 109.5q-100 26 -180 26q-143 0 -224.5 -59t-81.5 -162q0 -75 42.5 -118.5t115.5 -43.5
z" />
    <glyph glyph-name="B.ss01" unicode="&#xe00a;" horiz-adv-x="744" 
d="M616 410q71 -48 71 -169q0 -93 -28.5 -165t-83 -113.5t-127.5 -41.5q-36 0 -73 13t-60.5 27.5t-57.5 38.5q-57 -73 -148 -73q-46 0 -77.5 27t-31.5 67q0 52 28 81t79 29q61 0 135 -48q11 25 20.5 53.5t18.5 70t13.5 64t14.5 80.5t13 74q7 42 13 70.5t13.5 62t14.5 55
t17 43.5t21 35t25 22t31 11q4 1 7 -2t3 -8v-38q0 -6 -7 -8q-44 -16 -83 -253q-1 -9 -7 -46.5t-8.5 -50t-8.5 -46.5t-9.5 -50t-10.5 -44.5t-13 -46.5t-14.5 -40t-17.5 -40q36 -25 54.5 -37t49 -24.5t56.5 -12.5q45 0 80 19t57 52.5t33.5 79t11.5 99.5q0 82 -31.5 117
t-74.5 35h-40q-11 0 -9 11l6 36q1 9 11 9h40q33 1 63 24.5t49 63t19 85.5q0 160 -243 160q-154 0 -237 -75.5t-83 -206.5q0 -61 22.5 -99t61.5 -42q11 -1 9 -11l-6 -34q-2 -9 -11 -9q-22 1 -44 12.5t-42.5 32.5t-33.5 58.5t-13 84.5q0 162 101 253.5t286 91.5
q143 0 216.5 -54t73.5 -152q0 -44 -13.5 -84.5t-37 -71.5t-53.5 -52zM109 -17q62 0 102 50q-61 42 -104 42q-27 0 -39 -12.5t-12 -41.5q0 -16 15 -27t38 -11z" />
    <glyph glyph-name="C.ss01" unicode="&#xe00b;" horiz-adv-x="497" 
d="M268 -79q-122 0 -190.5 87.5t-68.5 237.5q0 81 14.5 162.5t45.5 156.5t74.5 133t106 92.5t134.5 34.5q75 0 118 -38.5t43 -105.5q0 -34 -11.5 -64t-32 -53t-52 -36t-69.5 -13q-10 0 -8 10l6 32q2 10 9 10q48 0 75 32.5t27 79.5q0 43 -27.5 66.5t-77.5 23.5
q-61 0 -114.5 -32.5t-90 -85.5t-63 -121t-38.5 -137.5t-12 -135.5q0 -128 56.5 -204t155.5 -76q44 0 81.5 18t63 47t46 70t32.5 82t21 87q2 10 11.5 16t20 6t18 -5.5t6.5 -15.5q-9 -47 -21.5 -90t-31 -84.5t-43.5 -74.5t-56 -58.5t-71.5 -39.5t-86.5 -14z" />
    <glyph glyph-name="Cacute.ss01" unicode="&#xe00c;" horiz-adv-x="497" 
d="M406 883q-5 0 -6 4.5t1 8.5l38 95q2 5 13 5h50q5 0 6 -4t-2 -9l-59 -97q-3 -4 -13 -4zM268 -79q-122 0 -190.5 87.5t-68.5 237.5q0 81 14.5 162.5t45.5 156.5t74.5 133t106 92.5t134.5 34.5q75 0 118 -38.5t43 -105.5q0 -34 -11.5 -64t-32 -53t-52 -36t-69.5 -13
q-10 0 -8 10l6 32q2 10 9 10q48 0 75 32.5t27 79.5q0 43 -27.5 66.5t-77.5 23.5q-61 0 -114.5 -32.5t-90 -85.5t-63 -121t-38.5 -137.5t-12 -135.5q0 -128 56.5 -204t155.5 -76q44 0 81.5 18t63 47t46 70t32.5 82t21 87q2 10 11.5 16t20 6t18 -5.5t6.5 -15.5
q-11 -57 -26.5 -107.5t-42 -98t-59.5 -81t-80 -54t-102 -20.5z" />
    </font>
</defs>
</svg>
